<?xml version="1.0" standalone="no"?>
<!DOCTYPE svg PUBLIC "-//W3C//DTD SVG 1.1//EN" "http://www.w3.org/Graphics/SVG/1.1/DTD/svg11.dtd" >
<svg xmlns="http://www.w3.org/2000/svg">
<metadata>
This is a custom SVG webfont generated by Font Squirrel.
Copyright   : Typeface  your company 2006 All Rights Reserved
</metadata>
<defs>
<font id="MarketDecoRegular" horiz-adv-x="200" >
<font-face units-per-em="2048" ascent="1638" descent="-410" />
<missing-glyph horiz-adv-x="700" />
<glyph unicode=" "  horiz-adv-x="700" />
<glyph unicode="&#x09;" horiz-adv-x="700" />
<glyph unicode="&#xa0;" horiz-adv-x="700" />
<glyph unicode="!" horiz-adv-x="392" d="M100 0v224h192v-224h-192zM100 448v1024h192v-1024h-192z" />
<glyph unicode="&#x22;" horiz-adv-x="968" d="M100 1103v30l118 502h208v-30l-208 -502h-118zM542 1104v30l118 502h208v-29l-208 -503h-118z" />
<glyph unicode="#" horiz-adv-x="1288" d="M100 448v128h251l37 320h-224v128h240l59 480h160l-59 -480h254l61 480h160l-57 -480h206v-128h-226l-36 -320h198v-128h-224l-64 -480h-160l64 480h-256l-64 -480h-160l64 480h-224zM511 576h248l40 320h-251z" />
<glyph unicode="$" horiz-adv-x="895" d="M100 173v222q39 -41 64 -58.5t61 -37t80 -33t86 -13.5q89 0 147.5 63t58.5 151q0 72 -50 116.5t-159 99.5q-66 33 -110.5 60.5t-85.5 67.5t-65.5 94.5t-24.5 126.5q3 72 35 134.5t87 110t125.5 74t148.5 26.5q60 -2 108 -16.5t106 -50.5v-186q-31 21 -45 26.5t-39 20 t-58.5 24t-71.5 9.5q-84 -1 -143.5 -55t-59.5 -126q2 -70 50 -110.5t152 -88.5q71 -33 115.5 -58.5t87 -65.5t68 -100t27.5 -142q0 -75 -32 -144t-89.5 -122t-132 -83.5t-157.5 -30.5q-85 0 -149.5 21.5t-134.5 73.5zM372 0v1474h170v-1474h-170z" />
<glyph unicode="%" horiz-adv-x="1404" d="M100 1081q0 76 16.5 140.5t48.5 109.5q28 39 64.5 61.5t75.5 22.5t76 -22.5t64 -61.5q31 -45 48 -109.5t17 -140.5t-17 -140t-48 -109q-27 -39 -64 -61.5t-76 -22.5t-76 22.5t-64 61.5q-32 45 -48.5 109t-16.5 140zM204 1082q0 -46 9 -90t26 -74q26 -45 66 -45t65 45 q16 30 26 74t10 90q0 47 -10 90.5t-26 72.5q-26 45 -65 45q-40 0 -66 -45q-16 -29 -25.5 -72.5t-9.5 -90.5zM338 46l595 1383l168 -1l-595 -1383zM894 393q0 76 17 140t48 109q27 39 64 61.5t76 22.5t76 -22.5t64 -61.5q32 -45 48.5 -109t16.5 -140t-16.5 -140.5 t-48.5 -109.5q-28 -39 -64.5 -61.5t-75.5 -22.5t-76 22.5t-64 61.5q-31 45 -48 109.5t-17 140.5zM998 392q0 -47 10 -90.5t26 -72.5q26 -45 65 -45q40 0 65 45q17 29 26.5 72.5t9.5 90.5q0 46 -9.5 90t-26.5 74q-25 45 -65 45t-65 -45q-16 -30 -26 -74t-10 -90z" />
<glyph unicode="&#x26;" horiz-adv-x="1238" d="M100 335q0 -72 27 -135t72.5 -109.5t107.5 -72.5t134 -26q173 0 328 161l102 -145h267l-225 321q10 14 17 25t15 23.5t17 33.5t24.5 57t26.5 62t20 48t16 43.5t15 51.5h-209q-34 -97 -72 -155l-143 201q28 24 45 41t48 51q64 73 90 131t26 126q0 121 -82.5 196t-220.5 75 q-64 0 -119.5 -22t-96.5 -59t-65 -87.5t-24 -108.5q0 -150 126 -317q-74 -60 -124.5 -111.5t-82.5 -99.5t-46 -97t-14 -102zM317 345q0 59 35 113t128 130l178 -267q-104 -128 -195 -128q-62 0 -104 44t-42 108zM447 1058q0 44 26.5 70.5t70.5 26.5q42 0 68 -25.5t26 -65.5 q0 -74 -54 -128l-46 -50l-8 -8q-48 70 -65.5 108t-17.5 72z" />
<glyph unicode="'" horiz-adv-x="526" d="M100 1103v30l118 502h208v-30l-208 -502h-118z" />
<glyph unicode="(" horiz-adv-x="744" d="M100 736q0 476 416 768l128 -160q-320 -212 -336 -551v-114q16 -339 336 -551l-128 -160q-416 292 -416 768z" />
<glyph unicode=")" horiz-adv-x="744" d="M100 128q320 212 336 551v114q-16 339 -336 551l128 160q416 -292 416 -768t-416 -768z" />
<glyph unicode="*" horiz-adv-x="838" d="M100 997l182 123v64l-182 130l55 72l203 -118l13 12v247h109v-247l12 -12l198 118l48 -72l-168 -130v-64l168 -120l-48 -85l-198 124l-12 -13v-264h-109v264l-13 13l-203 -124z" />
<glyph unicode="+" horiz-adv-x="1056" d="M100 511v206h325v325h207v-325h324v-206h-324v-325h-207v325h-325z" />
<glyph unicode="," horiz-adv-x="552" d="M100 -319l128 544h224v-32l-224 -544h-128v32z" />
<glyph unicode="-" horiz-adv-x="863" d="M100 626v174h663v-174h-663z" />
<glyph unicode="." horiz-adv-x="392" d="M100 1v224h192v-224h-192z" />
<glyph unicode="/" horiz-adv-x="968" d="M100 -31l544 1536h224l-544 -1536h-224z" />
<glyph unicode="0" horiz-adv-x="1111" d="M100 738q0 171 37 314.5t107 241.5q62 88 144 137t168 49q85 0 167.5 -49t143.5 -137q70 -98 107 -241.5t37 -314.5q0 -168 -37.5 -311t-106.5 -241q-60 -88 -143 -137t-168 -49q-86 0 -169 49t-143 137q-69 98 -106.5 241t-37.5 311zM304 740q0 -115 23.5 -223 t64.5 -182q65 -113 163 -113q99 0 164 113q40 73 64 181.5t24 223.5q0 117 -24 225t-64 181q-66 112 -164 112t-163 -112q-40 -73 -64 -181t-24 -225z" />
<glyph unicode="1" horiz-adv-x="586" d="M100 1248l2 231h384v-1479h-225v1248h-161z" />
<glyph unicode="2" horiz-adv-x="1015" d="M100 0v220q523 518 558 775t-150 243t-297 -132v251l88 71q101 51 221 51q72 0 150 -18q209 -70 212 -421t-494 -820h527v-220h-815z" />
<glyph unicode="3" horiz-adv-x="1007" d="M100 123l27 178q181 -119 307 -93q102 0 174 69.5t72 174.5q0 102 -73.5 175.5t-252.5 176.5q160 97 218 158t58 145q0 82 -59 136.5t-140 54.5q-95 0 -229 -95l-20 206q81 73 249 83q371 -34 412 -394q10 -142 -126 -299q190 -153 185 -343q-17 -404 -471 -456 q-204 7 -331 123z" />
<glyph unicode="4" horiz-adv-x="1062" d="M100 468l542 1004h192v-992h128v-224h-128v-256h-224v256h-509zM322 480h288l-1 535z" />
<glyph unicode="5" horiz-adv-x="1042" d="M100 72v250q255 -169 427.5 -105t165.5 334q-43 231 -440 202h-109v727h694v-232h-475v-246q494 -16 549 -416q30 -257 -101 -434.5t-407 -175.5q-162 0 -304 96z" />
<glyph unicode="6" horiz-adv-x="1078" d="M103 450q-3 390 500 1040h276q-307 -376 -436 -657q495 5 535 -410q-31 -406 -448 -423q-370 17 -426 423q-1 14 -1 27zM352 503q-17 -117 27.5 -187t136 -80t153 37.5t73.5 131.5t-36 144t-141 70.5t-181 16.5q-23 -80 -26.5 -95t-5.5 -38z" />
<glyph unicode="7" horiz-adv-x="982" d="M100 1250v238h782v-228l-398 -1260h-256l384 1250h-512z" />
<glyph unicode="8" horiz-adv-x="1271" d="M107 424q-7 196 206 354q-154 161 -141 308q47 371 461 395q420 -24 466 -395q13 -147 -140 -308q212 -158 206 -354q-19 -417 -532 -450q-507 33 -526 450zM355 420q0 -109 80.5 -180.5t194.5 -71.5q125 0 205.5 71.5t80.5 180.5q0 105 -81.5 175.5t-201.5 70.5 q-113 0 -195.5 -70.5t-82.5 -175.5zM410 1095q0 -86 65 -144t156 -58q100 0 164.5 57.5t64.5 143.5t-65.5 142t-161.5 56q-91 0 -157 -56t-66 -141z" />
<glyph unicode="9" horiz-adv-x="1078" d="M100 1067q31 406 448 423q370 -17 426 -423q1 -14 1 -27q3 -390 -500 -1040h-276q307 376 436 657q-495 -5 -535 410zM336 1085q-12 -84 36 -144t141 -70.5t181 -16.5q23 80 26.5 95t5.5 38q17 117 -27.5 187t-136 80t-153 -37.5t-73.5 -131.5z" />
<glyph unicode=":" horiz-adv-x="392" d="M100 1v224h192v-224h-192zM100 481v224h192v-224h-192z" />
<glyph unicode=";" horiz-adv-x="502" d="M100 -288l110 494h192v-27l-192 -467h-110zM207 481v224h192v-224h-192z" />
<glyph unicode="&#x37e;" horiz-adv-x="502" d="M100 -288l110 494h192v-27l-192 -467h-110zM207 481v224h192v-224h-192z" />
<glyph unicode="&#x3c;" horiz-adv-x="1096" d="M100 413v198l896 413v-224l-608 -288l608 -288v-224z" />
<glyph unicode="=" horiz-adv-x="1096" d="M100 256v174h896v-174h-896zM100 626v174h896v-174h-896z" />
<glyph unicode="&#x3e;" horiz-adv-x="1096" d="M100 0v224l608 288l-608 288v224l896 -413v-198z" />
<glyph unicode="?" horiz-adv-x="1002" d="M100 1171q53 234 230 320q96 46 197 46q85 0 172 -32q192 -72 192 -335q11 -228 -137.5 -320.5t-118.5 -432.5h-256v160q0 213 143 330.5t145 242.5q-20 131 -147.5 131t-236.5 -192zM397 0v224h220v-224h-220z" />
<glyph unicode="@" horiz-adv-x="1627" d="M100 743q0 -161 56 -297t155.5 -235.5t237 -155t300.5 -55.5q228 0 387 105q27 19 50.5 36.5t46.5 40.5t48.5 54.5t61.5 75.5h-152q-30 -31 -52 -50.5t-42.5 -35t-40.5 -27.5t-43 -25q-114 -56 -252 -56q-131 0 -243 48t-194.5 133t-130 199.5t-47.5 249.5 q0 133 46.5 249.5t129 201.5t194.5 134t241 49q123 0 225.5 -40.5t176.5 -111t116 -168.5t42 -214q0 -78 -24 -152.5t-73 -130.5q-42 -53 -88.5 -85.5t-76.5 -32.5q-34 0 -29 37v11q0 6 2 18t6 30l95 567h-150l-23 -114q-72 140 -237 140q-82 0 -153 -35t-124 -96 t-82.5 -145t-29.5 -180q0 -78 22 -143.5t62.5 -112.5t97.5 -73t125 -26q126 0 209 104q0 -113 108 -113q53 0 125 31q164 65 256 205.5t92 328.5q0 135 -50.5 248.5t-141.5 196t-215.5 129.5t-270.5 47q-163 0 -299.5 -58t-237 -159t-156.5 -239.5t-56 -302.5zM567 702 q7 67 31 124t61 96t82.5 59.5t95.5 15.5q82 -9 123 -75t30 -173q-15 -145 -86.5 -231t-170.5 -75q-86 9 -131.5 80.5t-34.5 178.5z" />
<glyph unicode="A" horiz-adv-x="1140" d="M100 -5l402 1492h136l402 -1492h-229l-63 236h-356l-63 -236h-229zM456 468h228l-113 477z" />
<glyph unicode="B" horiz-adv-x="1104" d="M100 0v1472h322q254 0 330 -204q27 -73 27 -141q0 -123 -89 -231q284 -93 314 -398q-10 -490 -492 -498h-412zM324 192h138q307 20 307 294q0 264 -307 284h-138v-578zM324 906q216 10 216 192t-216 182v-374z" />
<glyph unicode="C" horiz-adv-x="1235" d="M100 730q0 391 354 631q185 112 407 112q138 0 274 -53v-249h-13q-122 73 -268 73q-292 0 -458 -274q-56 -118 -56 -243q0 -266 244 -435q127 -75 277 -75q129 0 274 77v-250q-132 -52 -285 -52q-361 0 -611 311q-139 198 -139 427z" />
<glyph unicode="D" horiz-adv-x="1184" d="M100 -8v1488h225q716 -77 759 -744q-43 -667 -759 -744h-225zM325 232h70q442 87 461 504q-19 417 -461 504h-70v-1008z" />
<glyph unicode="E" horiz-adv-x="882" d="M100 0v1472h682v-224h-457v-400h457v-224h-457v-400h457v-224h-682z" />
<glyph unicode="F" horiz-adv-x="882" d="M100 0v1472h682v-224h-457v-400h457v-224h-457v-624h-225z" />
<glyph unicode="G" horiz-adv-x="1235" d="M100 730q0 391 354 631q185 112 407 112q138 0 274 -53v-249h-13q-122 73 -268 73q-292 0 -458 -274q-56 -118 -56 -243q0 -266 244 -435q127 -75 277 -75q43 0 82 17v390h-155v224h347v-804q-132 -52 -285 -52q-361 0 -611 311q-139 198 -139 427z" />
<glyph unicode="H" horiz-adv-x="1166" d="M100 0v1480h226v-632h514v632h226v-1480h-226v624h-514v-624h-226z" />
<glyph unicode="I" horiz-adv-x="424" d="M100 0v1480h224v-1480h-224z" />
<glyph unicode="J" horiz-adv-x="859" d="M100 86v197l187 -63q34 -5 62 -5q186 0 186 194v1071h224v-1039q-3 -436 -361 -441q-197 0 -298 86z" />
<glyph unicode="K" horiz-adv-x="1077" d="M100 0v1472h225v-760l423 760h216l-299 -569l312 -905h-239l-227 659l-186 -330v-329z" />
<glyph unicode="L" horiz-adv-x="936" d="M100 0v1472h225v-1248h511v-224h-736z" />
<glyph unicode="M" horiz-adv-x="1156" d="M100 0v1476h187l291 -792l291 792h187v-1478h-225v715l-253 -675l-254 685v-723h-224z" />
<glyph unicode="N" horiz-adv-x="1112" d="M100 0v1476h206l482 -886v890h224v-1480l-165 -2l-522 916v-914h-225z" />
<glyph unicode="O" horiz-adv-x="1713" d="M100 740q0 153 59.5 289.5t162.5 236.5t240 158t295 58q157 0 294 -58t240 -158t162.5 -236.5t59.5 -289.5q0 -154 -59.5 -288.5t-162.5 -234.5t-240 -158.5t-294 -58.5q-158 0 -295 58.5t-240 158.5t-162.5 234.5t-59.5 288.5zM342 740q0 -107 40 -200.5t110 -163 t164 -109t201 -39.5q106 0 200 39.5t163.5 109t109.5 163t40 200.5t-40 200.5t-109.5 163t-163.5 108.5t-200 39q-107 0 -201 -39t-164 -108.5t-110 -163t-40 -200.5z" />
<glyph unicode="P" horiz-adv-x="949" d="M100 0v1480h225q311 -10 459 -266q65 -108 65 -259q0 -282 -159 -409.5t-364 -131.5v-414h-226zM326 634q105 1 178 46q152 98 152 268q1 90 -42 161q-95 163 -288 163v-638z" />
<glyph unicode="Q" horiz-adv-x="1726" d="M100 711v53q0 319 280 555q213 161 436 161h72q350 0 608 -340q114 -199 114 -382v-35q0 -257 -232 -513l248 -294h-280l-140 166q-186 -81 -354 -81q-409 0 -657 375q-95 173 -95 335zM323 716q0 -271 270 -442q119 -63 240 -63h30q155 10 205 36l-230 274h271l126 -144 l63 86q75 132 75 271q0 291 -270 459q-120 62 -234 62h-41q-290 0 -458 -298q-47 -113 -47 -206v-35z" />
<glyph unicode="R" horiz-adv-x="1010" d="M100 0v1480h225q311 -10 459 -266q65 -108 65 -259q0 -302 -212 -446l273 -511h-240l-224 420q-34 -7 -71 -7q-24 0 -49 3v-414h-226zM326 634q105 1 178 46q152 98 152 268q1 90 -42 161q-95 163 -288 163v-638z" />
<glyph unicode="S" horiz-adv-x="985" d="M100 101v251q44 -46 72 -66t69 -42t90.5 -37t97.5 -15q100 0 166 71t66 170q0 82 -56 132t-180 112q-74 38 -124.5 69t-96.5 76t-74 106.5t-28 143.5q4 81 40 151.5t98 124t141.5 83.5t168.5 30q67 -2 121.5 -18.5t119.5 -56.5v-210q-35 23 -50.5 29.5t-44 22.5t-66.5 27 t-80 11q-95 -1 -162.5 -62t-67.5 -143q2 -79 56.5 -124.5t172.5 -99.5q80 -38 130 -66.5t98 -74t77 -113t31 -160.5q0 -85 -36 -162.5t-101 -137.5t-149.5 -94.5t-177.5 -34.5q-96 0 -169 24t-152 83z" />
<glyph unicode="T" horiz-adv-x="1160" d="M100 1248v232h960v-232h-368v-1240h-224v1240h-368z" />
<glyph unicode="U" horiz-adv-x="1107" d="M100 571v909h225v-909q0 -341 228 -341q229 0 229 341v909h225v-909q0 -551 -454 -571q-453 20 -453 571z" />
<glyph unicode="V" horiz-adv-x="1390" d="M100 1479h250l345 -1040l345 1040h250l-497 -1481h-195z" />
<glyph unicode="W" horiz-adv-x="1680" d="M100 1480h216l263 -824l245 773h32l245 -773l263 824h216l-409 -1482l-103 1l-228 758l-228 -759h-103z" />
<glyph unicode="X" horiz-adv-x="1349" d="M100 0l434 768l-408 714h268l284 -490l278 490h281l-415 -714l427 -767l-268 -1l-303 512l-296 -512h-282z" />
<glyph unicode="Y" horiz-adv-x="1229" d="M100 1479h237l278 -656l277 656h237l-386 -919v-560h-257v560z" />
<glyph unicode="Z" horiz-adv-x="1118" d="M100 -2v198l552 1058h-518v225h869v-190l-576 -1064h591v-225z" />
<glyph unicode="[" horiz-adv-x="584" d="M100 0v1480h384v-180h-180v-1120h180v-180h-384z" />
<glyph unicode="\" horiz-adv-x="1000" d="M100 1505h192l608 -1536h-192z" />
<glyph unicode="]" horiz-adv-x="584" d="M100 0v180h180v1120h-180v180h384v-1480h-384z" />
<glyph unicode="^" horiz-adv-x="950" d="M120 1052l267 512h176l267 -512h-171l-184 321l-184 -321h-171z" />
<glyph unicode="_" horiz-adv-x="1575" d="M100 -148h1375v-108h-1375v108z" />
<glyph unicode="`" horiz-adv-x="526" d="M100 1608v27h185l105 -452v-27h-105z" />
<glyph unicode="a" horiz-adv-x="1140" d="M100 -5l402 1492h136l402 -1492h-229l-63 236h-356l-63 -236h-229zM456 468h228l-113 477z" />
<glyph unicode="b" horiz-adv-x="1104" d="M100 0v1472h322q254 0 330 -204q27 -73 27 -141q0 -123 -89 -231q284 -93 314 -398q-10 -490 -492 -498h-412zM324 192h138q307 20 307 294q0 264 -307 284h-138v-578zM324 906q216 10 216 192t-216 182v-374z" />
<glyph unicode="c" horiz-adv-x="1235" d="M100 730q0 391 354 631q185 112 407 112q138 0 274 -53v-249h-13q-122 73 -268 73q-292 0 -458 -274q-56 -118 -56 -243q0 -266 244 -435q127 -75 277 -75q129 0 274 77v-250q-132 -52 -285 -52q-361 0 -611 311q-139 198 -139 427z" />
<glyph unicode="d" horiz-adv-x="1184" d="M100 -8v1488h225q716 -77 759 -744q-43 -667 -759 -744h-225zM325 232h70q442 87 461 504q-19 417 -461 504h-70v-1008z" />
<glyph unicode="e" horiz-adv-x="882" d="M100 0v1472h682v-224h-457v-544h457v-224h-457v-256h457v-224h-682z" />
<glyph unicode="f" horiz-adv-x="882" d="M100 0v1472h682v-224h-457v-544h457v-224h-457v-480h-225z" />
<glyph unicode="g" horiz-adv-x="1232" d="M100 730q0 391 354 631q185 112 407 112q138 0 274 -53v-249h-13q-122 73 -268 73q-292 0 -458 -274q-56 -118 -56 -243q0 -266 244 -435q127 -75 277 -75q43 0 82 17v246h-155v224h347v-660q-132 -52 -285 -52q-361 0 -611 311q-139 198 -139 427z" />
<glyph unicode="h" horiz-adv-x="1166" d="M100 0v1480h226v-772h514v772h226v-1480h-226v480h-514v-480h-226z" />
<glyph unicode="i" horiz-adv-x="424" d="M100 0v1480h224v-1480h-224z" />
<glyph unicode="j" horiz-adv-x="859" d="M100 86v197l187 -63q34 -5 62 -5q186 0 186 194v1071h224v-1039q-3 -436 -361 -441q-197 0 -298 86z" />
<glyph unicode="k" horiz-adv-x="1077" d="M100 0v1472h225v-760l423 760h216l-299 -569l312 -905h-239l-227 659l-186 -330v-329z" />
<glyph unicode="l" horiz-adv-x="936" d="M100 0v1472h225v-1248h511v-224h-736z" />
<glyph unicode="m" horiz-adv-x="1156" d="M100 0v1476h187l291 -792l291 792h187v-1478h-225v715l-253 -675l-254 685v-723h-224z" />
<glyph unicode="n" horiz-adv-x="1112" d="M100 0v1476h206l482 -886v890h224v-1480l-165 -2l-522 916v-914h-225z" />
<glyph unicode="o" horiz-adv-x="1713" d="M100 740q0 153 59.5 289.5t162.5 236.5t240 158t295 58q157 0 294 -58t240 -158t162.5 -236.5t59.5 -289.5q0 -154 -59.5 -288.5t-162.5 -234.5t-240 -158.5t-294 -58.5q-158 0 -295 58.5t-240 158.5t-162.5 234.5t-59.5 288.5zM342 740q0 -107 40 -200.5t110 -163 t164 -109t201 -39.5q106 0 200 39.5t163.5 109t109.5 163t40 200.5t-40 200.5t-109.5 163t-163.5 108.5t-200 39q-107 0 -201 -39t-164 -108.5t-110 -163t-40 -200.5z" />
<glyph unicode="p" horiz-adv-x="1026" d="M100 2v1480h225q192 -4 333 -88q267 -185 267 -500q1 -193 -104 -344q-30 -40 -98.5 -103.5t-212.5 -112.5q-87 -20 -159 -20q-13 0 -25 1v-313h-226zM326 523h36q88 1 174 53q167 112 167 318v5q0 101 -38 181q-112 187 -294 187h-45v-744z" />
<glyph unicode="q" horiz-adv-x="1726" d="M100 711v53q0 319 280 555q213 161 436 161h72q350 0 608 -340q114 -199 114 -382v-35q0 -257 -232 -513l248 -294h-280l-140 166q-186 -81 -354 -81q-409 0 -657 375q-95 173 -95 335zM323 716q0 -271 270 -442q119 -63 240 -63h30q155 10 205 36l-230 274h271l126 -144 l63 86q75 132 75 271q0 291 -270 459q-120 62 -234 62h-41q-290 0 -458 -298q-47 -113 -47 -206v-35z" />
<glyph unicode="r" horiz-adv-x="1026" d="M100 0v1480h225q192 -4 333 -88q267 -185 267 -500q1 -183 -104 -333q-30 -41 -121 -121l210 -440h-240l-160 344q-87 -20 -159 -20q-13 0 -25 1v-323h-226zM326 531h36q88 1 174 53q167 112 167 308v5q0 101 -38 181q-112 187 -294 187h-45v-734z" />
<glyph unicode="s" horiz-adv-x="993" d="M100 102v254q44 -47 72.5 -67t70 -42.5t91.5 -37.5t98 -15q101 0 168 71.5t67 171.5q0 83 -57 133.5t-182 113.5q-74 38 -125 69.5t-97.5 77t-75 107.5t-28.5 145q4 82 40.5 153t99 125t143 84.5t170.5 30.5q67 -2 122 -19t121 -57v-212q-35 23 -51 29.5t-44.5 23 t-67 27.5t-80.5 11q-96 -1 -164.5 -63t-68.5 -144q2 -80 57 -126t174 -101q81 -38 131.5 -67t99 -74.5t78 -114t31.5 -162.5q0 -86 -36.5 -164t-102 -138.5t-151 -95.5t-179.5 -35q-97 0 -170.5 24t-153.5 84z" />
<glyph unicode="t" horiz-adv-x="1160" d="M100 1248v232h960v-232h-368v-1240h-224v1240h-368z" />
<glyph unicode="u" horiz-adv-x="1107" d="M100 571v909h225v-909q0 -341 228 -341q229 0 229 341v909h225v-909q0 -551 -454 -571q-453 20 -453 571z" />
<glyph unicode="v" horiz-adv-x="1390" d="M100 1479h250l345 -1040l345 1040h250l-497 -1481h-195z" />
<glyph unicode="w" horiz-adv-x="1680" d="M100 1480h216l263 -824l245 773h32l245 -773l263 824h216l-409 -1482l-103 1l-228 758l-228 -759h-103z" />
<glyph unicode="x" horiz-adv-x="1349" d="M100 0l434 768l-408 714h268l284 -490l278 490h281l-415 -714l427 -767l-268 -1l-303 512l-296 -512h-282z" />
<glyph unicode="y" horiz-adv-x="1229" d="M100 1479h237l278 -836l277 836h237l-386 -1099v-380h-257v380z" />
<glyph unicode="z" horiz-adv-x="1118" d="M100 -2v198l552 1058h-518v225h869v-190l-576 -1064h591v-225z" />
<glyph unicode="{" horiz-adv-x="712" d="M100 511v104q160 104 160 236v413q0 245 256 259h96v-144h-96q-96 0 -96 -121v-472q0 -106 -96 -223q96 -117 96 -243v-162q0 -123 96 -123h96v-143h-96q-256 15 -256 259v124q0 146 -160 236z" />
<glyph unicode="|" horiz-adv-x="392" d="M100 1v1472h192v-1472h-192z" />
<glyph unicode="}" horiz-adv-x="712" d="M100 35h96q96 0 96 122v163q0 126 96 243q-96 117 -96 223v471q0 122 -96 122h-96v144h96q256 -15 256 -259v-413q0 -132 160 -236v-104q-160 -90 -160 -236v-125q0 -244 -256 -259h-96v144z" />
<glyph unicode="~" horiz-adv-x="1199" d="M100 1390q122 132 227.5 139.5t329.5 -72t324 79.5l118 -125q-122 -132 -227.5 -139.5t-329.5 72t-324 -79.5z" />
<glyph unicode="&#xa1;" />
<glyph unicode="&#xa2;" horiz-adv-x="997" d="M100 731q0 301 272 485q143 86 314 86q106 0 211 -40v-192h-10q-94 56 -207 56q-224 0 -352 -211q-43 -91 -43 -187q0 -204 188 -335q97 -57 213 -57q99 0 211 59v-192q-102 -40 -220 -40q-278 0 -470 239q-107 152 -107 329zM501 0v1474h169v-1474h-169z" />
<glyph unicode="&#xa3;" />
<glyph unicode="&#xa4;" />
<glyph unicode="&#xa5;" />
<glyph unicode="&#xa6;" />
<glyph unicode="&#xa7;" />
<glyph unicode="&#xa8;" />
<glyph unicode="&#xa9;" horiz-adv-x="1312" d="M100 1076q0 112 43.5 212.5t119.5 174t176.5 116t216.5 42.5t216.5 -42.5t176.5 -116t119.5 -174t43.5 -212.5q0 -113 -43.5 -212t-119.5 -172.5t-176.5 -116.5t-216.5 -43t-216.5 43t-176.5 116.5t-119.5 172.5t-43.5 212zM183 1076q0 -98 37 -184t101 -149.5 t150.5 -100t185.5 -36.5q97 0 183.5 36.5t150 100t100.5 149.5t37 184t-37 184t-100.5 149.5t-150 99.5t-183.5 36q-99 0 -185.5 -36t-150.5 -99.5t-101 -149.5t-37 -184zM324 1082q0 192 174 310q90 55 199 55q68 0 135 -26v-122h-7q-60 36 -131 36q-143 0 -225 -135 q-27 -58 -27 -119q0 -130 119 -213q63 -37 136 -37q63 0 135 38v-123q-65 -25 -140 -25q-177 0 -300 152q-68 97 -68 209z" />
<glyph unicode="&#xaa;" />
<glyph unicode="&#xab;" />
<glyph unicode="&#xac;" />
<glyph unicode="&#xad;" horiz-adv-x="863" d="M100 626v174h663v-174h-663z" />
<glyph unicode="&#xae;" horiz-adv-x="1312" d="M100 1076q0 112 43.5 212.5t119.5 174t176.5 116t216.5 42.5t216.5 -42.5t176.5 -116t119.5 -174t43.5 -212.5q0 -113 -43.5 -212t-119.5 -172.5t-176.5 -116.5t-216.5 -43t-216.5 43t-176.5 116.5t-119.5 172.5t-43.5 212zM183 1076q0 -98 37 -184t101 -149.5 t150.5 -100t185.5 -36.5q97 0 183.5 36.5t150 100t100.5 149.5t37 184t-37 184t-100.5 149.5t-150 99.5t-183.5 36q-99 0 -185.5 -36t-150.5 -99.5t-101 -149.5t-37 -184zM479 719v728h111q94 -2 163 -44q132 -90 132 -245q0 -90 -51 -164q-15 -20 -60 -60l103 -216h-118 l-78 169q-51 -11 -91 -9v-159h-111zM590 980h18q43 1 85 26q83 55 83 152q0 51 -19 91q-55 92 -145 92h-22v-361z" />
<glyph unicode="&#xaf;" />
<glyph unicode="&#xb0;" />
<glyph unicode="&#xb1;" />
<glyph unicode="&#xb2;" />
<glyph unicode="&#xb3;" />
<glyph unicode="&#xb4;" />
<glyph unicode="&#xb5;" />
<glyph unicode="&#xb6;" />
<glyph unicode="&#xb7;" />
<glyph unicode="&#x2219;" />
<glyph unicode="&#xb8;" />
<glyph unicode="&#xb9;" />
<glyph unicode="&#xba;" />
<glyph unicode="&#xbb;" />
<glyph unicode="&#xbc;" />
<glyph unicode="&#xbd;" />
<glyph unicode="&#xbe;" />
<glyph unicode="&#xbf;" />
<glyph unicode="&#xc0;" />
<glyph unicode="&#xc1;" />
<glyph unicode="&#xc2;" />
<glyph unicode="&#xc3;" />
<glyph unicode="&#xc4;" />
<glyph unicode="&#xc5;" />
<glyph unicode="&#xc6;" />
<glyph unicode="&#xc7;" />
<glyph unicode="&#xc8;" />
<glyph unicode="&#xc9;" />
<glyph unicode="&#xca;" />
<glyph unicode="&#xcb;" />
<glyph unicode="&#xcc;" />
<glyph unicode="&#xcd;" />
<glyph unicode="&#xce;" />
<glyph unicode="&#xcf;" />
<glyph unicode="&#xd0;" />
<glyph unicode="&#xd1;" />
<glyph unicode="&#xd2;" />
<glyph unicode="&#xd3;" />
<glyph unicode="&#xd4;" />
<glyph unicode="&#xd5;" />
<glyph unicode="&#xd6;" />
<glyph unicode="&#xd7;" />
<glyph unicode="&#xd8;" />
<glyph unicode="&#xd9;" />
<glyph unicode="&#xda;" />
<glyph unicode="&#xdb;" />
<glyph unicode="&#xdc;" />
<glyph unicode="&#xdd;" />
<glyph unicode="&#xde;" />
<glyph unicode="&#xdf;" />
<glyph unicode="&#xe0;" />
<glyph unicode="&#xe1;" />
<glyph unicode="&#xe2;" />
<glyph unicode="&#xe3;" />
<glyph unicode="&#xe4;" />
<glyph unicode="&#xe5;" />
<glyph unicode="&#xe6;" />
<glyph unicode="&#xe7;" />
<glyph unicode="&#xe8;" />
<glyph unicode="&#xe9;" />
<glyph unicode="&#xea;" />
<glyph unicode="&#xeb;" />
<glyph unicode="&#xec;" />
<glyph unicode="&#xed;" />
<glyph unicode="&#xee;" />
<glyph unicode="&#xef;" />
<glyph unicode="&#xf0;" />
<glyph unicode="&#xf1;" />
<glyph unicode="&#xf2;" />
<glyph unicode="&#xf3;" />
<glyph unicode="&#xf4;" />
<glyph unicode="&#xf5;" />
<glyph unicode="&#xf6;" />
<glyph unicode="&#xf7;" />
<glyph unicode="&#xf8;" />
<glyph unicode="&#xf9;" />
<glyph unicode="&#xfa;" />
<glyph unicode="&#xfb;" />
<glyph unicode="&#xfc;" />
<glyph unicode="&#xfd;" />
<glyph unicode="&#xfe;" />
<glyph unicode="&#xff;" />
<glyph unicode="&#x100;" />
<glyph unicode="&#x101;" />
<glyph unicode="&#x102;" />
<glyph unicode="&#x103;" />
<glyph unicode="&#x104;" />
<glyph unicode="&#x105;" />
<glyph unicode="&#x106;" />
<glyph unicode="&#x107;" />
<glyph unicode="&#x108;" />
<glyph unicode="&#x109;" />
<glyph unicode="&#x10a;" />
<glyph unicode="&#x10b;" />
<glyph unicode="&#x10c;" />
<glyph unicode="&#x10d;" />
<glyph unicode="&#x10e;" />
<glyph unicode="&#x10f;" />
<glyph unicode="&#x110;" />
<glyph unicode="&#x111;" />
<glyph unicode="&#x112;" />
<glyph unicode="&#x113;" />
<glyph unicode="&#x114;" />
<glyph unicode="&#x115;" />
<glyph unicode="&#x116;" />
<glyph unicode="&#x117;" />
<glyph unicode="&#x118;" />
<glyph unicode="&#x119;" />
<glyph unicode="&#x11a;" />
<glyph unicode="&#x11b;" />
<glyph unicode="&#x11c;" />
<glyph unicode="&#x11d;" />
<glyph unicode="&#x11e;" />
<glyph unicode="&#x11f;" />
<glyph unicode="&#x120;" />
<glyph unicode="&#x121;" />
<glyph unicode="&#x122;" />
<glyph unicode="&#x123;" />
<glyph unicode="&#x124;" />
<glyph unicode="&#x125;" />
<glyph unicode="&#x126;" />
<glyph unicode="&#x127;" />
<glyph unicode="&#x128;" />
<glyph unicode="&#x129;" />
<glyph unicode="&#x12a;" />
<glyph unicode="&#x12b;" />
<glyph unicode="&#x12c;" />
<glyph unicode="&#x12d;" />
<glyph unicode="&#x12e;" />
<glyph unicode="&#x12f;" />
<glyph unicode="&#x130;" />
<glyph unicode="&#x131;" />
<glyph unicode="&#x132;" />
<glyph unicode="&#x133;" />
<glyph unicode="&#x134;" />
<glyph unicode="&#x135;" />
<glyph unicode="&#x136;" />
<glyph unicode="&#x137;" />
<glyph unicode="&#x138;" />
<glyph unicode="&#x139;" />
<glyph unicode="&#x13a;" />
<glyph unicode="&#x13b;" />
<glyph unicode="&#x13c;" />
<glyph unicode="&#x13d;" />
<glyph unicode="&#x13e;" />
<glyph unicode="&#x13f;" />
<glyph unicode="&#x140;" />
<glyph unicode="&#x141;" />
<glyph unicode="&#x142;" />
<glyph unicode="&#x143;" />
<glyph unicode="&#x144;" />
<glyph unicode="&#x145;" />
<glyph unicode="&#x146;" />
<glyph unicode="&#x147;" />
<glyph unicode="&#x148;" />
<glyph unicode="&#x149;" />
<glyph unicode="&#x14a;" />
<glyph unicode="&#x14b;" />
<glyph unicode="&#x14c;" />
<glyph unicode="&#x14d;" />
<glyph unicode="&#x14e;" />
<glyph unicode="&#x14f;" />
<glyph unicode="&#x150;" />
<glyph unicode="&#x151;" />
<glyph unicode="&#x152;" />
<glyph unicode="&#x153;" />
<glyph unicode="&#x154;" />
<glyph unicode="&#x155;" />
<glyph unicode="&#x156;" />
<glyph unicode="&#x157;" />
<glyph unicode="&#x158;" />
<glyph unicode="&#x159;" />
<glyph unicode="&#x15a;" />
<glyph unicode="&#x15b;" />
<glyph unicode="&#x15c;" />
<glyph unicode="&#x15d;" />
<glyph unicode="&#x15e;" />
<glyph unicode="&#x15f;" />
<glyph unicode="&#x160;" />
<glyph unicode="&#x161;" />
<glyph unicode="&#x162;" />
<glyph unicode="&#x163;" />
<glyph unicode="&#x164;" />
<glyph unicode="&#x165;" />
<glyph unicode="&#x166;" />
<glyph unicode="&#x167;" />
<glyph unicode="&#x168;" />
<glyph unicode="&#x169;" />
<glyph unicode="&#x16a;" />
<glyph unicode="&#x16b;" />
<glyph unicode="&#x16c;" />
<glyph unicode="&#x16d;" />
<glyph unicode="&#x16e;" />
<glyph unicode="&#x16f;" />
<glyph unicode="&#x170;" />
<glyph unicode="&#x171;" />
<glyph unicode="&#x172;" />
<glyph unicode="&#x173;" />
<glyph unicode="&#x174;" />
<glyph unicode="&#x175;" />
<glyph unicode="&#x176;" />
<glyph unicode="&#x177;" />
<glyph unicode="&#x178;" />
<glyph unicode="&#x179;" />
<glyph unicode="&#x17a;" />
<glyph unicode="&#x17b;" />
<glyph unicode="&#x17c;" />
<glyph unicode="&#x17d;" />
<glyph unicode="&#x17e;" />
<glyph unicode="&#x17f;" />
<glyph unicode="&#x192;" />
<glyph unicode="&#x1fa;" />
<glyph unicode="&#x1fb;" />
<glyph unicode="&#x1fc;" />
<glyph unicode="&#x1fd;" />
<glyph unicode="&#x1fe;" />
<glyph unicode="&#x1ff;" />
<glyph unicode="&#x2c6;" />
<glyph unicode="&#x2c7;" />
<glyph unicode="&#x2c9;" />
<glyph unicode="&#x2d8;" />
<glyph unicode="&#x2d9;" />
<glyph unicode="&#x2da;" />
<glyph unicode="&#x2db;" />
<glyph unicode="&#x2dc;" />
<glyph unicode="&#x2dd;" />
<glyph unicode="&#x384;" />
<glyph unicode="&#x385;" />
<glyph unicode="&#x386;" />
<glyph unicode="&#x387;" />
<glyph unicode="&#x388;" />
<glyph unicode="&#x389;" />
<glyph unicode="&#x38a;" />
<glyph unicode="&#x38c;" />
<glyph unicode="&#x38e;" />
<glyph unicode="&#x38f;" />
<glyph unicode="&#x390;" />
<glyph unicode="&#x391;" />
<glyph unicode="&#x392;" />
<glyph unicode="&#x393;" />
<glyph unicode="&#x394;" />
<glyph unicode="&#x395;" />
<glyph unicode="&#x396;" />
<glyph unicode="&#x397;" />
<glyph unicode="&#x398;" />
<glyph unicode="&#x399;" />
<glyph unicode="&#x39a;" />
<glyph unicode="&#x39b;" />
<glyph unicode="&#x39c;" />
<glyph unicode="&#x39d;" />
<glyph unicode="&#x39e;" />
<glyph unicode="&#x39f;" />
<glyph unicode="&#x3a0;" />
<glyph unicode="&#x3a1;" />
<glyph unicode="&#x3a3;" />
<glyph unicode="&#x3a4;" />
<glyph unicode="&#x3a5;" />
<glyph unicode="&#x3a6;" />
<glyph unicode="&#x3a7;" />
<glyph unicode="&#x3a8;" />
<glyph unicode="&#x3a9;" />
<glyph unicode="&#x3aa;" />
<glyph unicode="&#x3ab;" />
<glyph unicode="&#x3ac;" />
<glyph unicode="&#x3ad;" />
<glyph unicode="&#x3ae;" />
<glyph unicode="&#x3af;" />
<glyph unicode="&#x3b0;" />
<glyph unicode="&#x3b1;" />
<glyph unicode="&#x3b2;" />
<glyph unicode="&#x3b3;" />
<glyph unicode="&#x3b4;" />
<glyph unicode="&#x3b5;" />
<glyph unicode="&#x3b6;" />
<glyph unicode="&#x3b7;" />
<glyph unicode="&#x3b8;" />
<glyph unicode="&#x3b9;" />
<glyph unicode="&#x3ba;" />
<glyph unicode="&#x3bb;" />
<glyph unicode="&#x3bc;" />
<glyph unicode="&#x3bd;" />
<glyph unicode="&#x3be;" />
<glyph unicode="&#x3bf;" />
<glyph unicode="&#x3c0;" />
<glyph unicode="&#x3c1;" />
<glyph unicode="&#x3c2;" />
<glyph unicode="&#x3c3;" />
<glyph unicode="&#x3c4;" />
<glyph unicode="&#x3c5;" />
<glyph unicode="&#x3c6;" />
<glyph unicode="&#x3c7;" />
<glyph unicode="&#x3c8;" />
<glyph unicode="&#x3c9;" />
<glyph unicode="&#x3ca;" />
<glyph unicode="&#x3cb;" />
<glyph unicode="&#x3cc;" />
<glyph unicode="&#x3cd;" />
<glyph unicode="&#x3ce;" />
<glyph unicode="&#x401;" />
<glyph unicode="&#x402;" />
<glyph unicode="&#x403;" />
<glyph unicode="&#x404;" />
<glyph unicode="&#x405;" />
<glyph unicode="&#x406;" />
<glyph unicode="&#x407;" />
<glyph unicode="&#x408;" />
<glyph unicode="&#x409;" />
<glyph unicode="&#x40a;" />
<glyph unicode="&#x40b;" />
<glyph unicode="&#x40c;" />
<glyph unicode="&#x40e;" />
<glyph unicode="&#x40f;" />
<glyph unicode="&#x410;" />
<glyph unicode="&#x411;" />
<glyph unicode="&#x412;" />
<glyph unicode="&#x413;" />
<glyph unicode="&#x414;" />
<glyph unicode="&#x415;" />
<glyph unicode="&#x416;" />
<glyph unicode="&#x417;" />
<glyph unicode="&#x418;" />
<glyph unicode="&#x419;" />
<glyph unicode="&#x41a;" />
<glyph unicode="&#x41b;" />
<glyph unicode="&#x41c;" />
<glyph unicode="&#x41d;" />
<glyph unicode="&#x41e;" />
<glyph unicode="&#x41f;" />
<glyph unicode="&#x420;" />
<glyph unicode="&#x421;" />
<glyph unicode="&#x422;" />
<glyph unicode="&#x423;" />
<glyph unicode="&#x424;" />
<glyph unicode="&#x425;" />
<glyph unicode="&#x426;" />
<glyph unicode="&#x427;" />
<glyph unicode="&#x428;" />
<glyph unicode="&#x429;" />
<glyph unicode="&#x42a;" />
<glyph unicode="&#x42b;" />
<glyph unicode="&#x42c;" />
<glyph unicode="&#x42d;" />
<glyph unicode="&#x42e;" />
<glyph unicode="&#x42f;" />
<glyph unicode="&#x430;" />
<glyph unicode="&#x431;" />
<glyph unicode="&#x432;" />
<glyph unicode="&#x433;" />
<glyph unicode="&#x434;" />
<glyph unicode="&#x435;" />
<glyph unicode="&#x436;" />
<glyph unicode="&#x437;" />
<glyph unicode="&#x438;" />
<glyph unicode="&#x439;" />
<glyph unicode="&#x43a;" />
<glyph unicode="&#x43b;" />
<glyph unicode="&#x43c;" />
<glyph unicode="&#x43d;" />
<glyph unicode="&#x43e;" />
<glyph unicode="&#x43f;" />
<glyph unicode="&#x440;" />
<glyph unicode="&#x441;" />
<glyph unicode="&#x442;" />
<glyph unicode="&#x443;" />
<glyph unicode="&#x444;" />
<glyph unicode="&#x445;" />
<glyph unicode="&#x446;" />
<glyph unicode="&#x447;" />
<glyph unicode="&#x448;" />
<glyph unicode="&#x449;" />
<glyph unicode="&#x44a;" />
<glyph unicode="&#x44b;" />
<glyph unicode="&#x44c;" />
<glyph unicode="&#x44d;" />
<glyph unicode="&#x44e;" />
<glyph unicode="&#x44f;" />
<glyph unicode="&#x451;" />
<glyph unicode="&#x452;" />
<glyph unicode="&#x453;" />
<glyph unicode="&#x454;" />
<glyph unicode="&#x455;" />
<glyph unicode="&#x456;" />
<glyph unicode="&#x457;" />
<glyph unicode="&#x458;" />
<glyph unicode="&#x459;" />
<glyph unicode="&#x45a;" />
<glyph unicode="&#x45b;" />
<glyph unicode="&#x45c;" />
<glyph unicode="&#x45e;" />
<glyph unicode="&#x45f;" />
<glyph unicode="&#x490;" />
<glyph unicode="&#x491;" />
<glyph unicode="&#x1e80;" />
<glyph unicode="&#x1e81;" />
<glyph unicode="&#x1e82;" />
<glyph unicode="&#x1e83;" />
<glyph unicode="&#x1e84;" />
<glyph unicode="&#x1e85;" />
<glyph unicode="&#x1ef2;" />
<glyph unicode="&#x1ef3;" />
<glyph unicode="&#x2000;" horiz-adv-x="818" />
<glyph unicode="&#x2001;" horiz-adv-x="1636" />
<glyph unicode="&#x2002;" horiz-adv-x="818" />
<glyph unicode="&#x2003;" horiz-adv-x="1636" />
<glyph unicode="&#x2004;" horiz-adv-x="545" />
<glyph unicode="&#x2005;" horiz-adv-x="409" />
<glyph unicode="&#x2006;" horiz-adv-x="272" />
<glyph unicode="&#x2007;" horiz-adv-x="272" />
<glyph unicode="&#x2008;" horiz-adv-x="204" />
<glyph unicode="&#x2009;" horiz-adv-x="327" />
<glyph unicode="&#x200a;" horiz-adv-x="90" />
<glyph unicode="&#x2010;" horiz-adv-x="863" d="M100 626v174h663v-174h-663z" />
<glyph unicode="&#x2011;" horiz-adv-x="863" d="M100 626v174h663v-174h-663z" />
<glyph unicode="&#x2012;" horiz-adv-x="863" d="M100 626v174h663v-174h-663z" />
<glyph unicode="&#x2013;" />
<glyph unicode="&#x2014;" />
<glyph unicode="&#x2015;" />
<glyph unicode="&#x2017;" />
<glyph unicode="&#x2018;" />
<glyph unicode="&#x2019;" horiz-adv-x="526" d="M100 1103v30l118 502h208v-30l-208 -502h-118z" />
<glyph unicode="&#x201a;" />
<glyph unicode="&#x201b;" />
<glyph unicode="&#x201c;" horiz-adv-x="968" d="M100 1103v30l118 502h208v-30l-208 -502h-118zM542 1104v30l118 502h208v-29l-208 -503h-118z" />
<glyph unicode="&#x201d;" horiz-adv-x="968" d="M100 1103v30l118 502h208v-30l-208 -502h-118zM542 1104v30l118 502h208v-29l-208 -503h-118z" />
<glyph unicode="&#x201e;" />
<glyph unicode="&#x2020;" />
<glyph unicode="&#x2021;" />
<glyph unicode="&#x2022;" />
<glyph unicode="&#x2026;" />
<glyph unicode="&#x202f;" horiz-adv-x="327" />
<glyph unicode="&#x2030;" />
<glyph unicode="&#x2032;" />
<glyph unicode="&#x2033;" />
<glyph unicode="&#x2039;" />
<glyph unicode="&#x203a;" />
<glyph unicode="&#x203c;" />
<glyph unicode="&#x203e;" />
<glyph unicode="&#x2044;" />
<glyph unicode="&#x2215;" />
<glyph unicode="&#x205f;" horiz-adv-x="409" />
<glyph unicode="&#x207f;" />
<glyph unicode="&#x20a3;" />
<glyph unicode="&#x20a4;" />
<glyph unicode="&#x20a7;" />
<glyph unicode="&#x20ac;" />
<glyph unicode="&#x2105;" />
<glyph unicode="&#x2113;" />
<glyph unicode="&#x2116;" />
<glyph unicode="&#x2122;" horiz-adv-x="1319" d="M100 1377v111h531v-111h-204v-705h-124v705h-203zM691 672v816h103l161 -438l161 438h103v-816h-124v394l-140 -373l-141 379v-400h-123z" />
<glyph unicode="&#x2126;" />
<glyph unicode="&#x212e;" />
<glyph unicode="&#x215b;" />
<glyph unicode="&#x215c;" />
<glyph unicode="&#x215d;" />
<glyph unicode="&#x215e;" />
<glyph unicode="&#x2190;" />
<glyph unicode="&#x2191;" />
<glyph unicode="&#x2192;" />
<glyph unicode="&#x2193;" />
<glyph unicode="&#x2194;" />
<glyph unicode="&#x2195;" />
<glyph unicode="&#x21a8;" />
<glyph unicode="&#x2202;" />
<glyph unicode="&#x2206;" />
<glyph unicode="&#x220f;" />
<glyph unicode="&#x2211;" />
<glyph unicode="&#x2212;" />
<glyph unicode="&#x221a;" />
<glyph unicode="&#x221e;" />
<glyph unicode="&#x221f;" />
<glyph unicode="&#x2229;" />
<glyph unicode="&#x222b;" />
<glyph unicode="&#x2248;" />
<glyph unicode="&#x2260;" />
<glyph unicode="&#x2261;" />
<glyph unicode="&#x2264;" />
<glyph unicode="&#x2265;" />
<glyph unicode="&#x2302;" />
<glyph unicode="&#x2310;" />
<glyph unicode="&#x2320;" />
<glyph unicode="&#x2321;" />
<glyph unicode="&#x2500;" />
<glyph unicode="&#x2502;" />
<glyph unicode="&#x250c;" />
<glyph unicode="&#x2510;" />
<glyph unicode="&#x2514;" />
<glyph unicode="&#x2518;" />
<glyph unicode="&#x251c;" />
<glyph unicode="&#x2524;" />
<glyph unicode="&#x252c;" />
<glyph unicode="&#x2534;" />
<glyph unicode="&#x253c;" />
<glyph unicode="&#x2550;" />
<glyph unicode="&#x2551;" />
<glyph unicode="&#x2552;" />
<glyph unicode="&#x2553;" />
<glyph unicode="&#x2554;" />
<glyph unicode="&#x2555;" />
<glyph unicode="&#x2556;" />
<glyph unicode="&#x2557;" />
<glyph unicode="&#x2558;" />
<glyph unicode="&#x2559;" />
<glyph unicode="&#x255a;" />
<glyph unicode="&#x255b;" />
<glyph unicode="&#x255c;" />
<glyph unicode="&#x255d;" />
<glyph unicode="&#x255e;" />
<glyph unicode="&#x255f;" />
<glyph unicode="&#x2560;" />
<glyph unicode="&#x2561;" />
<glyph unicode="&#x2562;" />
<glyph unicode="&#x2563;" />
<glyph unicode="&#x2564;" />
<glyph unicode="&#x2565;" />
<glyph unicode="&#x2566;" />
<glyph unicode="&#x2567;" />
<glyph unicode="&#x2568;" />
<glyph unicode="&#x2569;" />
<glyph unicode="&#x256a;" />
<glyph unicode="&#x256b;" />
<glyph unicode="&#x256c;" />
<glyph unicode="&#x2580;" />
<glyph unicode="&#x2584;" />
<glyph unicode="&#x2588;" />
<glyph unicode="&#x258c;" />
<glyph unicode="&#x2590;" />
<glyph unicode="&#x2591;" />
<glyph unicode="&#x2592;" />
<glyph unicode="&#x2593;" />
<glyph unicode="&#x25a0;" />
<glyph unicode="&#x25a1;" />
<glyph unicode="&#x25aa;" />
<glyph unicode="&#x25ab;" />
<glyph unicode="&#x25ac;" />
<glyph unicode="&#x25b2;" />
<glyph unicode="&#x25ba;" />
<glyph unicode="&#x25bc;" />
<glyph unicode="&#x25c4;" />
<glyph unicode="&#x25ca;" />
<glyph unicode="&#x25cb;" />
<glyph unicode="&#x25cf;" />
<glyph unicode="&#x25d8;" />
<glyph unicode="&#x25d9;" />
<glyph unicode="&#x25e6;" />
<glyph unicode="&#x263a;" />
<glyph unicode="&#x263b;" />
<glyph unicode="&#x263c;" />
<glyph unicode="&#x2640;" />
<glyph unicode="&#x2642;" />
<glyph unicode="&#x2660;" />
<glyph unicode="&#x2663;" />
<glyph unicode="&#x2665;" />
<glyph unicode="&#x2666;" />
<glyph unicode="&#x266a;" />
<glyph unicode="&#x266b;" />
<glyph unicode="&#xe000;" horiz-adv-x="1480" d="M0 1480h1480v-1480h-1480v1480z" />
<glyph unicode="&#xf001;" />
<glyph unicode="&#xfb01;" />
<glyph unicode="&#xf002;" />
<glyph unicode="&#xfb02;" />
<glyph unicode="&#xf004;" />
<glyph unicode="&#xf005;" />
<glyph />
</font>
</defs>
</svg>
