<?xml version="1.0" standalone="no"?>
<!DOCTYPE svg PUBLIC "-//W3C//DTD SVG 1.1//EN" "http://www.w3.org/Graphics/SVG/1.1/DTD/svg11.dtd" >
<svg xmlns="http://www.w3.org/2000/svg">
<metadata></metadata>
<defs>
<font id="AniversRegular" horiz-adv-x="1028" >
<font-face units-per-em="2048" ascent="1546" descent="-502" />
<missing-glyph horiz-adv-x="509" />
<glyph unicode="&#xfb01;" horiz-adv-x="1071" d="M63 874v127l11 11h133v215q0 81 31.5 146.5t84.5 106t118.5 62t136.5 21.5q166 0 303 -115l2 -14l-90 -103l-17 2q-92 74 -198 74q-88 0 -147.5 -44t-59.5 -128v-223h463l71 10l10 -8v-1004l-10 -10h-143l-10 10v854h-381v-1108l-41 -207l-13 -14l-100 59l-10 19v1251 h-133z" />
<glyph unicode="&#xfb02;" horiz-adv-x="1136" d="M63 874v127l11 11h133v215q0 81 31.5 146.5t84.5 106t118.5 62t136.5 21.5q150 0 266 -88l92 14l10 -8v-1250q0 -37 17.5 -59t36 -27.5t38.5 -5.5h9l8 -10l-23 -129l-10 -10h-16q-22 0 -45 3t-57 16.5t-59.5 36.5t-44 68.5t-18.5 106.5v1098q-78 88 -204 88 q-88 0 -147.5 -44t-59.5 -128v-223h342l10 -11l-39 -127l-14 -10h-299v-1108l-41 -207l-13 -14l-100 59l-10 19v1251h-133z" />
<glyph unicode="&#xfb03;" horiz-adv-x="1687" d="M63 874v127l11 11h133v139q0 108 49.5 186t127 114t173.5 36q152 0 270 -90q48 81 136 123.5t190 42.5q166 0 303 -115l2 -14l-90 -103l-16 2q-92 74 -199 74q-88 0 -147.5 -44t-59.5 -128v-223h504l72 10l10 -8v-1004l-10 -10h-144l-10 10v854h-422v-1108l-41 -207 l-12 -14l-100 59l-11 19v1251h-411v-1108l-41 -207l-13 -14l-100 59l-10 19v1251h-133zM371 1012h411v205q-6 10 -18.5 24.5t-39.5 37t-71 37.5t-96 15q-86 0 -136 -43t-50 -129v-147z" />
<glyph unicode="&#xfb04;" horiz-adv-x="1712" d="M63 874v127l11 11h133v139q0 108 49.5 186t127 114t173.5 36q152 0 270 -90q48 81 136 123.5t190 42.5q150 0 266 -88l92 14l11 -8v-1250q0 -37 17.5 -59t36 -27.5t38.5 -5.5h8l8 -10l-22 -129l-11 -10h-16q-18 0 -36 2.5t-45.5 9.5t-51 23t-44.5 40t-33.5 64.5 t-12.5 91.5v1098q-78 88 -205 88q-88 0 -147.5 -44t-59.5 -128v-223h311l11 -11l-39 -127l-15 -10h-268v-1108l-41 -207l-12 -14l-100 59l-11 19v1251h-411v-1108l-41 -207l-13 -14l-100 59l-10 19v1251h-133zM371 1012h411v205q-6 10 -18.5 24.5t-39.5 37t-71 37.5t-96 15 q-86 0 -136 -43t-50 -129v-147z" />
<glyph horiz-adv-x="0" />
<glyph horiz-adv-x="2048" />
<glyph unicode=" "  horiz-adv-x="509" />
<glyph unicode="&#x09;" horiz-adv-x="509" />
<glyph unicode="&#xa0;" horiz-adv-x="509" />
<glyph unicode="!" horiz-adv-x="587" d="M186 1448l11 12l188 25l12 -8l-39 -1086l-10 -10h-108l-11 10zM193 10v187l10 10h182l10 -10v-187l-10 -10h-182z" />
<glyph unicode="&#x22;" horiz-adv-x="708" d="M106 1372l11 10h159l11 -10l-21 -346l-10 -10h-117l-10 10zM422 1372l10 10h160l10 -10l-20 -346l-11 -10h-116l-11 10z" />
<glyph unicode="#" horiz-adv-x="1372" d="M92 377v121l10 10h236l68 362h-203l-10 11v120l10 11h229l66 350l12 12l131 21l12 -11l-69 -372h309l65 350l13 12l131 21l12 -11l-70 -372h248l8 -11l-34 -120l-15 -11h-233l-68 -362h242l8 -10l-35 -121l-14 -10h-227l-66 -357l-12 -10h-131l-8 10l65 357h-309 l-66 -357l-12 -10h-131l-8 10l65 357h-209zM489 508h310l67 362h-309z" />
<glyph unicode="$" horiz-adv-x="1005" d="M104 106l70 109l16 2q4 -3 11.5 -8.5t33 -19t53.5 -24.5t72 -20.5t89 -11.5v363q-58 20 -94 34.5t-83 41.5t-74 57t-46 76t-19 102q0 120 90.5 197.5t225.5 97.5v137l10 12l98 15l10 -9v-151q74 -4 145 -22t105.5 -33.5t46.5 -24.5l2 -10l-63 -113l-15 -2q-76 50 -221 57 v-335q57 -19 96 -35t87 -44.5t76.5 -60.5t48.5 -81t20 -109q0 -72 -28 -127.5t-76 -89.5t-103.5 -54t-120.5 -28v-144l-10 -10h-98l-10 10v136q-83 3 -178.5 32.5t-161.5 77.5zM297 811q0 -52 39 -85.5t113 -61.5v288q-152 -26 -152 -141zM567 139q164 22 164 154 q0 58 -42.5 95t-121.5 67v-316z" />
<glyph unicode="%" horiz-adv-x="1443" d="M119 967v209q0 105 67 163t176 58t175.5 -58t66.5 -163v-209q0 -105 -66.5 -162t-175.5 -57t-176 57.5t-67 161.5zM123 10l1032 1381l14 4l127 -39l4 -10l-1003 -1342l-12 -4h-158zM240 989q0 -123 122 -123q58 0 89.5 31t31.5 92v168q0 59 -31.5 89t-89.5 30 q-122 0 -122 -119v-168zM842 199v207q0 106 67 163.5t176 57.5q110 0 178 -57.5t68 -163.5v-207q0 -105 -68.5 -164.5t-177.5 -59.5q-108 0 -175.5 59.5t-67.5 164.5zM963 215q0 -58 31.5 -88.5t90.5 -30.5q58 0 89.5 30.5t31.5 88.5v170q0 59 -31.5 90t-89.5 31 q-59 0 -90.5 -30.5t-31.5 -90.5v-170z" />
<glyph unicode="&#x26;" horiz-adv-x="1224" d="M117 410q0 120 56 209t159 108q-83 37 -131.5 116t-48.5 181q0 78 23 139.5t63.5 102.5t98 67t123 37.5t142.5 11.5h131l8 -10l-22 -127l-12 -10h-105q-58 0 -106 -10t-90.5 -32.5t-66.5 -65t-24 -101.5q0 -119 69 -168t228 -49h168l19 207l10 12l117 16l10 -8v-227h207 l10 -10l-39 -127l-14 -10h-164v-629l-10 -13q-16 -5 -45.5 -12.5t-118 -20t-174.5 -12.5q-72 0 -138.5 14.5t-128 48t-106 83t-71.5 124t-27 165.5zM281 412q0 -72 27 -129.5t72.5 -91t99.5 -51t112 -17.5q36 0 81 5.5t72 11.5l27 5v517h-160q-155 0 -243 -68t-88 -182z" />
<glyph unicode="'" horiz-adv-x="393" d="M106 1372l11 10h159l11 -10l-21 -346l-10 -10h-117l-10 10z" />
<glyph unicode="(" horiz-adv-x="577" d="M131 571q0 131 15.5 248t40 199.5t54 151t59.5 111.5t54.5 72.5t39.5 41.5l16 12h14l82 -90l-2 -14q-8 -8 -22.5 -25.5t-50.5 -81.5t-63.5 -140.5t-50 -207t-22.5 -277.5q0 -107 11.5 -205.5t30 -170t41 -133t45.5 -102t41.5 -69t29.5 -41.5l12 -12l-2 -14l-80 -88 l-14 -2q-6 4 -16 12t-39 40.5t-55.5 73t-58.5 111t-55 151.5t-39 199t-16 250z" />
<glyph unicode=")" horiz-adv-x="577" d="M72 -162q9 8 23 25.5t50.5 81.5t64 140.5t50.5 207.5t23 278q0 107 -11.5 205t-30 169.5t-41 133t-44.5 101.5t-40.5 69t-29.5 41l-12 13l-2 14l82 90h14q6 -4 16 -12.5t39 -41t55 -73t58 -111t55 -151.5t39 -198.5t16 -248.5q0 -132 -15.5 -249.5t-40 -200t-54 -151 t-59 -111t-54 -72t-39.5 -41.5l-16 -12l-14 2l-80 88z" />
<glyph unicode="*" horiz-adv-x="1110" d="M102 1012l43 118l13 7l213 -123q49 -27 69 -27q7 0 19 4v-16q-47 -80 -125 -80q-52 0 -109 33l-119 69zM197 684l2 14l213 123q56 33 63 66l12 -8q25 -43 25 -84q0 -81 -100 -142l-119 -69l-14 4zM371 1227v137l10 12l125 23l10 -8v-246q0 -67 25 -88l-15 -8 q-45 0 -77 16t-48 43t-23 56t-7 63zM573 848l15 8q45 0 77 -16t48 -43t23 -56t7 -63v-137l-10 -13l-125 -22l-10 8v246q0 67 -25 88zM602 1110q0 80 100 141l119 70l15 -4l82 -96l-3 -15l-213 -123q-56 -34 -63 -65l-12 8q-25 43 -25 84zM655 913v17q47 80 125 80 q48 0 109 -33l119 -70l4 -14l-43 -119l-13 -6l-213 123q-46 24 -69 24q-13 0 -19 -2z" />
<glyph unicode="+" horiz-adv-x="1126" d="M193 465v129l10 10h264v293l10 12l144 21l10 -8v-318h297l8 -10l-33 -129l-12 -10h-260v-330l-10 -10h-144l-10 10v330h-264z" />
<glyph unicode="," horiz-adv-x="505" d="M66 -225l86 428l12 10h215l6 -10l-217 -459l-14 -8l-80 24z" />
<glyph unicode="-" horiz-adv-x="870" d="M170 459v143l10 10h527l8 -10l-37 -143l-12 -10h-486z" />
<glyph unicode="." horiz-adv-x="483" d="M137 10v193l10 10h189l10 -10v-193l-10 -10h-189z" />
<glyph unicode="/" horiz-adv-x="708" d="M72 -143l399 1505l10 12l144 21l12 -9l-408 -1527l-12 -13h-139z" />
<glyph unicode="0" horiz-adv-x="1167" d="M137 373v327q0 83 25 150.5t67.5 113t100 76.5t121.5 44.5t133 13.5t132.5 -13.5t121.5 -44.5t100 -76.5t67 -113t25 -150.5v-327q0 -83 -25 -150.5t-67 -113t-100 -76.5t-121.5 -44.5t-132.5 -13.5t-133 13.5t-121.5 44.5t-100 76.5t-67.5 113t-25 150.5zM301 408 q0 -140 78.5 -212.5t204.5 -72.5t204 72.5t78 212.5v258q0 140 -78 212t-204 72q-127 0 -205 -72t-78 -212v-258z" />
<glyph unicode="1" horiz-adv-x="897" d="M84 10v127l10 10h287v779h-195l-12 10l-37 127l8 10h390l10 -10v-916h299l8 -10l-37 -127l-12 -10h-709z" />
<glyph unicode="2" horiz-adv-x="1054" d="M84 872q5 9 15.5 24.5t49 54.5t84 68.5t122 54t161.5 24.5q171 0 280 -91t109 -259q0 -78 -27 -154t-70.5 -135t-90 -108t-94 -84t-73 -52t-36.5 -22l-86 -46h518l8 -10l-34 -127l-13 -10h-739l-10 10l-19 90q52 28 107 62t125.5 83.5t131.5 106t114 118.5t83.5 131.5 t30.5 135.5q0 97 -61.5 153t-169.5 56q-52 0 -101 -17t-82 -41t-58.5 -48t-37.5 -41l-12 -17h-14l-109 74z" />
<glyph unicode="3" horiz-adv-x="1067" d="M49 -88l2 16l105 74h14q4 -7 12.5 -19t38.5 -43t64 -54.5t89 -42.5t115 -19q119 0 205 69t86 187v29q0 115 -89 178t-251 63h-90l-8 10l35 127l12 11h51q305 0 305 225q0 115 -75 171t-191 56q-55 0 -104.5 -15.5t-82 -37t-56.5 -43.5t-35 -38l-11 -15h-16l-102 73l-2 15 q5 8 15 22.5t47 50.5t80 63.5t115 50t152 22.5q192 0 311 -99.5t119 -275.5q0 -95 -50 -182t-134 -121q100 -32 159.5 -110.5t59.5 -172.5v-78q0 -89 -37.5 -162.5t-100.5 -121t-143 -73.5t-167 -26q-66 0 -126.5 13t-104 34t-81 46t-62 50t-41.5 46t-25 34z" />
<glyph unicode="4" horiz-adv-x="1099" d="M49 172l637 883l12 8l119 20l10 -8v-866h254l9 -10l-37 -127l-13 -11h-213v-360l-10 -12l-143 -21l-10 8v385h-574l-10 11zM260 209h404v493l4 72l-35 -61l-342 -467z" />
<glyph unicode="5" horiz-adv-x="999" d="M0 -94l2 16l104 74h15q4 -7 12.5 -19t38.5 -43t64.5 -54.5t90.5 -42.5t117 -19q114 0 201.5 70t87.5 184v61q0 114 -87 183t-202 69q-61 0 -120 -13.5t-88 -27.5l-29 -14h-10l-64 88v645l12 10h678l8 -10l-36 -127l-13 -10h-485v-410q74 16 152 16q116 0 216 -42.5 t166 -130.5t66 -205v-105q0 -115 -66 -203.5t-166.5 -132t-215.5 -43.5q-90 0 -169.5 24.5t-128.5 59t-85 69t-51 59.5z" />
<glyph unicode="6" horiz-adv-x="1155" d="M162 373v628q0 174 132.5 288t321.5 114q58 0 112 -12.5t93.5 -32.5t74.5 -44t57.5 -47.5t39 -43.5t23.5 -33l8 -12v-15l-106 -76h-17q-1 4 -12.5 20t-37 41.5t-57.5 49t-80 40.5t-98 17q-44 0 -84 -9t-78 -30t-66 -53t-45 -81t-17 -111v-154l-13 -96q3 9 11 23.5 t31.5 39.5t54.5 45t85.5 35t120.5 15q82 0 156 -22.5t137 -68t100.5 -126t37.5 -185.5v-104q0 -83 -24.5 -150.5t-66.5 -113t-99 -76.5t-120.5 -44.5t-132.5 -13.5q-88 0 -164.5 23t-140 68.5t-100.5 124.5t-37 182zM326 408q0 -140 77 -212.5t201 -72.5q126 0 202.5 72 t76.5 213v32q0 139 -77.5 213t-197.5 74q-182 0 -282 -65v-254z" />
<glyph unicode="7" horiz-adv-x="931" d="M35 1063l6 10h809l8 -10l19 -80l-555 -1300l-13 -7l-137 35l-6 10l512 1205h-590l-12 8z" />
<glyph unicode="8" horiz-adv-x="1134" d="M125 373q0 109 58.5 205t156.5 129q-78 30 -131 115t-53 188q0 191 110.5 292t302.5 101q189 0 298.5 -101t109.5 -292q0 -103 -52 -188t-130 -115q97 -32 155 -128.5t58 -205.5q0 -82 -24 -149.5t-65.5 -113t-98 -76.5t-119.5 -45t-132 -14t-132.5 14t-121 45 t-99.5 76.5t-66.5 113t-24.5 149.5zM289 375q0 -118 78 -185t202 -67q120 0 197.5 67.5t77.5 184.5q0 115 -78 186.5t-197 71.5q-122 0 -201 -71.5t-79 -186.5zM319 1010q0 -109 66 -173.5t184 -64.5q116 0 181 64.5t65 173.5q0 115 -65 180t-181 65q-119 0 -184.5 -65 t-65.5 -180z" />
<glyph unicode="9" horiz-adv-x="1157" d="M109 596v104q0 103 37 182t100.5 124.5t140 68.5t164.5 23t164.5 -23t140 -68.5t100.5 -124.5t37 -182v-622q0 -174 -132.5 -288t-321.5 -114q-80 0 -151.5 23.5t-116 56.5t-78 66t-47.5 56l-15 24v14l107 76h16q4 -7 12 -18t35.5 -40t58.5 -51.5t79.5 -40.5t99.5 -18 q55 0 104.5 15t92 47t68 89.5t25.5 133.5v147l13 94q-3 -6 -8.5 -16.5t-29.5 -37.5t-54.5 -47t-87 -37t-123.5 -17q-65 0 -125 13t-116.5 44t-97.5 76t-66 114t-25 154zM272 633q0 -139 77.5 -213t197.5 -74q180 0 282 66v254q0 140 -77 212t-201 72q-126 0 -202.5 -71.5 t-76.5 -212.5v-33z" />
<glyph unicode=":" horiz-adv-x="483" d="M137 10v193l10 10h189l10 -10v-193l-10 -10h-189zM137 809v192l10 11h189l10 -11v-192l-10 -10h-189z" />
<glyph unicode=";" horiz-adv-x="505" d="M66 -225l86 428l12 10h215l6 -10l-217 -459l-14 -8l-80 24zM150 809v192l10 11h188l10 -11v-192l-10 -10h-188z" />
<glyph unicode="&#x3c;" horiz-adv-x="1126" d="M115 432l32 158l13 12l801 418l10 -8v-146l-10 -14l-678 -352l678 -336l10 -14v-146l-10 -8l-840 420z" />
<glyph unicode="=" horiz-adv-x="1126" d="M193 285v129l10 10h680l8 -10l-35 -129l-12 -11h-641zM193 645v129l10 10h725l8 -10l-35 -129l-12 -10h-686z" />
<glyph unicode="&#x3e;" horiz-adv-x="1126" d="M156 2v145l10 15l678 352l-678 336l-10 14v146l10 8l840 -420l6 -16l-33 -158l-12 -12l-801 -418z" />
<glyph unicode="?" horiz-adv-x="1007" d="M72 1147q0 166 114.5 259t290.5 93t290 -93t114 -259v-215q0 -152 -96.5 -249t-249.5 -112l-7 -180l-10 -10h-121l-10 10v307l10 13l140 22q82 13 127 76.5t45 157.5v145q0 109 -61 166t-171 57q-113 0 -177 -55.5t-64 -167.5l-13 -8l-141 31zM356 10v187l11 10h182 l10 -10v-187l-10 -10h-182z" />
<glyph unicode="@" horiz-adv-x="1847" d="M133 322v112q0 220 49 395.5t147.5 305t257 199t367.5 69.5q389 0 579.5 -179.5t190.5 -555.5v-131q0 -294 -134 -449.5t-421 -179.5l-16 8l-84 221q-2 -7 -7.5 -17.5t-28 -38.5t-52 -49.5t-84.5 -39t-121 -17.5q-68 0 -122 26.5t-87 71t-50 99.5t-17 115q0 154 24 280 t65.5 212t98.5 145t122.5 85.5t139.5 26.5q73 0 161.5 -19.5t140.5 -38.5l53 -20l10 -14l-90 -733l45 -154q147 45 219 164.5t72 331.5v94q0 324 -150.5 466t-456.5 142q-133 0 -241 -38t-185 -109.5t-129 -174.5t-77 -231t-25 -282v-80q0 -165 37 -282.5t113 -189.5 t184 -105.5t258 -34.5l6 -15l-27 -127l-12 -8q-356 0 -539.5 186t-183.5 558zM668 326q0 -203 170 -203q37 0 93.5 15.5t94.5 31.5l37 16l76 656q-9 5 -25 12.5t-66 20t-100 12.5q-34 0 -69.5 -15.5t-74 -56.5t-68 -102t-49 -161.5t-19.5 -225.5z" />
<glyph unicode="A" horiz-adv-x="1208" d="M25 10l477 1352l12 10l172 23l12 -9l486 -1376l-6 -10h-164l-13 10l-112 330h-572l-110 -330l-10 -10h-166zM371 496h467l-213 630l-21 88l-20 -88z" />
<glyph unicode="B" horiz-adv-x="1189" d="M190 10v1362l11 10h372q449 0 449 -350q0 -101 -49.5 -178.5t-141.5 -110.5q107 -35 167.5 -123.5t60.5 -211.5q0 -83 -24.5 -151.5t-67 -115.5t-100 -79t-122 -47t-135.5 -15h-409zM362 158h226q58 0 109 13.5t94.5 41.5t68.5 78t25 117q0 66 -25 116t-68 78.5t-94 42.5 t-110 14h-226v-501zM362 817h213q275 0 275 205q0 50 -15.5 87t-40.5 59t-62 35t-74 17.5t-83 4.5h-213v-408z" />
<glyph unicode="C" horiz-adv-x="1284" d="M145 477v418q0 244 145 376t392 132q170 0 297 -74.5t182 -208.5l-6 -12l-137 -57l-14 4q-42 85 -127.5 134.5t-194.5 49.5q-162 0 -261 -92.5t-99 -265.5v-385q0 -177 98 -267t262 -90q126 0 214.5 49t131.5 142l14 4l134 -51l6 -13q-51 -145 -180 -220t-320 -75 q-247 0 -392 130t-145 372z" />
<glyph unicode="D" horiz-adv-x="1343" d="M190 10v1362l11 10h458q247 0 393 -132t146 -376v-372q0 -242 -145.5 -372t-393.5 -130h-458zM362 164h297q164 0 263.5 90t99.5 266v340q0 173 -100 266t-263 93h-297v-1055z" />
<glyph unicode="E" horiz-adv-x="1050" d="M190 10v1362l11 10h710l11 -10v-143l-11 -10h-549v-410h478l8 -10l-37 -144l-12 -10h-437v-481h551l9 -10l-21 -144l-12 -10h-688z" />
<glyph unicode="F" horiz-adv-x="989" d="M190 10v1362l11 10h690l10 -10v-143l-10 -10h-529v-431h498l8 -10l-37 -143l-12 -10h-457v-615l-10 -10h-151z" />
<glyph unicode="G" horiz-adv-x="1337" d="M145 477v418q0 244 145 376t392 132q170 0 297 -74.5t182 -208.5l-6 -12l-137 -57l-14 4q-42 85 -127.5 134.5t-194.5 49.5q-162 0 -261 -92.5t-99 -265.5v-385q0 -177 98 -267t262 -90q167 0 266 90t99 267v47h-236l-12 10l-21 143l8 11h422l11 -11v-219 q0 -244 -142 -373t-395 -129q-247 0 -392 130t-145 372z" />
<glyph unicode="H" horiz-adv-x="1456" d="M190 10v1352l11 12l151 21l10 -9v-579h730v555l10 12l151 21l11 -9v-1376l-11 -10h-151l-10 10v633h-730v-633l-10 -10h-151z" />
<glyph unicode="I" horiz-adv-x="555" d="M190 10v1352l11 12l151 21l10 -9v-1376l-10 -10h-151z" />
<glyph unicode="J" horiz-adv-x="772" d="M8 63l62 127l16 3q70 -54 150 -54q29 0 58 11.5t57.5 35.5t46.5 70.5t18 108.5v997l10 12l152 21l10 -9v-1038q0 -170 -94 -271.5t-248 -101.5q-139 0 -236 74z" />
<glyph unicode="K" horiz-adv-x="1216" d="M190 10v1352l11 12l151 21l10 -9v-579h97l16 8l426 545l17 10l215 25l8 -11l-488 -589l-59 -60l59 -65l324 -430q13 -18 30 -34.5t54 -34t78 -17.5q16 0 24 2l8 -11l-22 -139l-12 -10q-12 -2 -37 -2q-45 0 -88 15.5t-71.5 34.5t-56 47t-38 41.5t-21.5 29.5l-358 485 l-16 8h-89v-645l-10 -10h-151z" />
<glyph unicode="L" horiz-adv-x="970" d="M190 10v1352l11 12l151 21l10 -9v-1222h590l9 -10l-37 -144l-13 -10h-710z" />
<glyph unicode="M" horiz-adv-x="1656" d="M190 10v1352l11 12l153 21l13 -9l460 -837l449 815l10 12l168 19l10 -9v-1376l-10 -10h-151l-7 10v1082l-51 -113l-332 -594l-12 -10h-147l-13 10l-331 594l-48 113v-1082l-10 -10h-151z" />
<glyph unicode="N" horiz-adv-x="1447" d="M190 10v1352l11 12l151 21l15 -9l663 -999l53 -98v1073l11 12l151 21l10 -9v-1376l-10 -10h-145l-17 10l-667 1008l-54 98v-1106l-10 -10h-151z" />
<glyph unicode="O" horiz-adv-x="1368" d="M145 477v418q0 244 146 376t393 132t393 -132t146 -376v-418q0 -242 -145.5 -372t-393.5 -130t-393.5 130t-145.5 372zM322 496q0 -176 99 -266.5t263 -90.5t263.5 90.5t99.5 266.5v385q0 173 -100 265.5t-263 92.5t-262.5 -92.5t-99.5 -265.5v-385z" />
<glyph unicode="P" horiz-adv-x="1134" d="M190 10v1362l11 10h360q238 0 367 -97.5t129 -313.5q0 -92 -28 -171t-82.5 -141t-143.5 -97.5t-203 -35.5q-198 0 -248 119l10 -82v-553l-10 -10h-151zM362 715q103 -35 195 -35q144 0 233 72t89 215q0 258 -318 258h-199v-510z" />
<glyph unicode="Q" horiz-adv-x="1368" d="M145 477v418q0 244 146 376t393 132t393 -132t146 -376v-418q0 -235 -138 -364.5t-372 -137.5q-19 -15 -19 -77q0 -61 32.5 -97.5t88.5 -36.5h164l10 -10v-162l-10 -10h-164q-64 0 -115 21t-80.5 54.5t-45 71.5t-15.5 76q0 56 25 100.5t71 69.5q-234 8 -372 138t-138 364 zM322 496q0 -176 99 -266.5t263 -90.5t263.5 90.5t99.5 266.5v385q0 173 -100 265.5t-263 92.5t-262.5 -92.5t-99.5 -265.5v-385z" />
<glyph unicode="R" horiz-adv-x="1193" d="M190 10v1362l11 10h364q104 0 188.5 -24.5t148.5 -73t99 -127.5t35 -182q0 -78 -22 -142t-57 -104t-77.5 -71t-85.5 -46t-78 -24t-57 -11l-22 -2l45 -45l240 -288q73 -86 163 -86q4 0 11.5 1t11.5 1l8 -11l-22 -139l-13 -10q-28 -4 -43 -4q-49 0 -94.5 18t-83 51.5 t-54 52t-40.5 48.5l-320 397l-14 8h-70v-559l-10 -10h-151zM362 727h201q60 0 111 12.5t95 40t69.5 77.5t25.5 118q0 67 -25.5 117t-69.5 78t-95.5 41.5t-110.5 13.5h-201v-498z" />
<glyph unicode="S" horiz-adv-x="1040" d="M98 113l84 114l19 2q43 -37 127 -63.5t153 -26.5q119 0 194 57.5t75 178.5q0 67 -34 115t-88 77t-119 54t-130.5 54.5t-119.5 68.5t-88 107t-34 159q0 119 56.5 210t149 137t204.5 46q93 0 177 -23.5t122.5 -44.5t52.5 -35l2 -14l-78 -119l-16 -2q-98 74 -252 74 q-119 0 -180.5 -61t-61.5 -162q0 -62 34 -106.5t88 -72t119 -52t130.5 -55.5t119.5 -72.5t88 -113t34 -167.5q0 -89 -27.5 -159.5t-71.5 -115t-104 -74t-121 -41.5t-127 -12q-82 0 -191 32.5t-182 90.5z" />
<glyph unicode="T" horiz-adv-x="1017" d="M33 1229v143l10 10h961l8 -10l-37 -143l-12 -10h-367v-1209l-10 -10h-152l-10 10v1209h-381z" />
<glyph unicode="U" horiz-adv-x="1423" d="M176 477v885l10 12l152 21l10 -9v-890q0 -176 100.5 -266.5t262.5 -90.5q167 0 264.5 90t97.5 267v866l10 12l152 21l10 -9v-909q0 -244 -140.5 -373t-393.5 -129q-249 0 -392 129.5t-143 372.5z" />
<glyph unicode="V" horiz-adv-x="1216" d="M27 1360l10 12l162 23l12 -9l356 -1085l39 -135l37 135l352 1057l11 12l178 25l12 -9l-494 -1390l-14 -10l-178 28l-12 13z" />
<glyph unicode="W" horiz-adv-x="1781" d="M29 1360l10 12l162 23l12 -9l317 -1021l41 -152l31 152l213 759v238l10 12l152 21l10 -9v-286l201 -735l31 -152l36 152l293 993l11 12l180 25l12 -9l-461 -1390l-14 -10l-148 28l-12 13l-192 692l-29 137l-29 -137l-204 -723l-15 -10l-151 28l-13 13z" />
<glyph unicode="X" horiz-adv-x="1177" d="M55 10l426 697l-387 653l10 12l156 23l12 -6l283 -500l35 -70l33 70l264 469l12 12l186 25l13 -9l-400 -679l422 -697l-6 -10h-184l-12 10l-295 516l-33 70q-61 -118 -182 -329t-146 -257l-12 -10h-187z" />
<glyph unicode="Y" horiz-adv-x="1052" d="M25 1358l10 14l172 23l12 -9l275 -544l32 -80q54 120 163 335t132 261l10 12l187 25l12 -9l-418 -780v-596l-10 -10h-151l-11 10v596z" />
<glyph unicode="Z" horiz-adv-x="1077" d="M92 111l660 1108h-627l-8 10l20 143l13 10h813l10 -10v-100l-658 -1108h643l11 -10v-144l-11 -10h-833l-12 10z" />
<glyph unicode="[" horiz-adv-x="630" d="M188 -231v1603l11 10h352l8 -10l-39 -119l-12 -10h-162v-1345h162l12 -11l39 -118l-8 -11h-352z" />
<glyph unicode="\" horiz-adv-x="700" d="M72 1364l10 12l125 19l10 -9l412 -1529l-6 -11h-138l-12 13z" />
<glyph unicode="]" horiz-adv-x="630" d="M72 -231l39 118l12 11h162v1345h-162l-12 10l-39 119l8 10h352l10 -10v-1603l-10 -11h-352z" />
<glyph unicode="^" horiz-adv-x="1030" d="M4 553l408 807l14 10l168 25l10 -9l422 -833l-6 -10h-154l-10 10l-342 682l-340 -682l-10 -10h-154z" />
<glyph unicode="_" horiz-adv-x="1138" d="M72 -10l10 10h975l10 -10v-129l-10 -11h-975l-10 11v129z" />
<glyph unicode="`" d="M289 1427l10 9h221l15 -9l122 -208l-2 -13l-102 -41h-12z" />
<glyph unicode="a" horiz-adv-x="970" d="M82 276q0 143 98 224q97 78 320 78h71q59 0 91 20v96q0 57 -16 96.5t-46.5 60.5t-66 29.5t-82.5 8.5q-126 0 -203 -62l-17 2l-69 103l4 16q114 88 287 88q169 0 270.5 -75t101.5 -236v-524l52 -181l-11 -12l-125 -18l-12 8l-59 147q-2 -7 -6.5 -18.5t-25.5 -40.5 t-49 -51.5t-80 -41t-116 -18.5q-58 0 -110.5 16t-99 49.5t-74 94t-27.5 141.5zM254 274q0 -68 45 -109.5t121 -41.5q45 0 105.5 14.5t98.5 29.5l38 15v346q-17 -55 -68 -78.5t-113 -23.5h-49q-31 0 -59 -6.5t-56.5 -22t-45.5 -47.5t-17 -76z" />
<glyph unicode="b" horiz-adv-x="1032" d="M156 23v1433l10 12l143 21l10 -8v-514l-10 -90q7 16 16 31t32 40t52 43t77.5 31.5t107.5 13.5q141 0 228 -92.5t87 -265.5v-348q0 -167 -104 -261t-268 -94q-56 0 -116 14t-92 28l-32 14l-131 -19zM319 160q99 -37 201 -37q103 0 164 63t61 179v284q0 124 -61 182 t-160 58q-31 0 -205 -47v-682z" />
<glyph unicode="c" horiz-adv-x="966" d="M121 330v350q0 160 106.5 258t292.5 98q119 0 212.5 -54t135.5 -155l-6 -12l-123 -43l-14 4q-28 53 -84 83t-131 30q-105 0 -165 -62.5t-60 -179.5v-282q0 -117 60 -179.5t165 -62.5q165 0 225 108l15 5l122 -43l7 -13q-38 -99 -132.5 -152t-226.5 -53 q-186 0 -292.5 97.5t-106.5 257.5z" />
<glyph unicode="d" horiz-adv-x="1038" d="M123 336v346q0 169 103 261.5t270 92.5q128 0 225 -69l-8 90v399l10 12l143 21l11 -8v-1280l51 -181l-10 -12l-125 -18l-13 8l-59 147q-10 -31 -30 -59t-52.5 -54t-84.5 -41.5t-118 -15.5q-141 0 -227 94.5t-86 266.5zM287 371q0 -127 60.5 -187.5t156.5 -60.5 q24 0 76.5 14.5t92.5 28.5l40 14v492q0 107 -54 162t-157 55q-97 0 -156 -62.5t-59 -177.5v-278z" />
<glyph unicode="e" horiz-adv-x="976" d="M121 330v344q0 169 106.5 265.5t282.5 96.5q94 0 166 -27t112 -71.5t60 -96.5t20 -108q0 -147 -93 -224t-245 -77q-57 0 -103.5 11t-72 25t-45.5 33t-26 28.5t-9 17.5l11 -76v-106q0 -117 61.5 -179.5t167.5 -62.5q88 0 140 27t83 81l15 5l122 -43l7 -13 q-36 -97 -131.5 -151t-227.5 -54q-191 0 -296 91t-105 264zM285 614q87 -36 198 -36q213 0 213 163q0 61 -48 104.5t-144 43.5q-105 0 -162 -60.5t-57 -177.5v-37z" />
<glyph unicode="f" horiz-adv-x="663" d="M63 874v127l11 11h133v215q0 81 31.5 146.5t84.5 106t118.5 62t136.5 21.5q111 0 200 -47l2 -15l-78 -112l-14 -5q-51 23 -110 23q-88 0 -147.5 -44t-59.5 -128v-223h321l10 -11l-38 -127l-15 -10h-278v-1108l-41 -207l-13 -14l-100 59l-10 19v1251h-133z" />
<glyph unicode="g" horiz-adv-x="995" d="M80 -276l4 14l123 55l14 -4q2 -5 6.5 -12.5t25 -27.5t49 -35t83 -27.5t121.5 -12.5q105 0 165 42.5t60 103.5q0 48 -36.5 82.5t-100.5 34.5h-127q-121 0 -189.5 56t-68.5 132q0 55 25.5 99.5t66.5 70.5q-5 1 -12.5 4t-30.5 15t-43.5 27.5t-46 44.5t-43.5 63.5t-30.5 87 t-12.5 112.5q0 178 102 275.5t283 97.5h203l225 47l12 -8l21 -113l-8 -14l-140 -39q49 -29 75 -99t26 -151q0 -171 -106 -275t-288 -104q-32 0 -65 2.5t-50 5.5l-16 2q-12 -30 -12 -61q0 -62 32.5 -96.5t90.5 -34.5h127q145 0 223 -74.5t78 -195.5q0 -93 -57 -160t-142 -97 t-186 -30q-155 0 -268.5 49.5t-161.5 147.5zM244 649q0 -117 59.5 -177t173.5 -60q242 0 242 237q0 240 -242 240q-107 0 -170 -61.5t-63 -178.5z" />
<glyph unicode="h" horiz-adv-x="1069" d="M156 10v1446l10 12l143 21l10 -8v-514l-10 -90q6 15 16.5 31t35 40.5t55 42.5t80 31.5t108.5 13.5q140 0 228 -92.5t88 -261.5v-672l-11 -10h-143l-10 10v639q0 124 -61 182t-160 58q-42 0 -216 -47v-832l-10 -10h-143z" />
<glyph unicode="i" horiz-adv-x="473" d="M141 1255v170l11 11h170l10 -11v-170l-10 -10h-170zM154 10v979l10 12l143 21l10 -8v-1004l-10 -10h-143z" />
<glyph unicode="j" horiz-adv-x="473" d="M-256 -381l66 119l10 2q7 -7 20 -18t54 -29.5t83 -18.5q67 0 122 62t55 184v1069l10 12l143 21l10 -8v-1106q0 -178 -89 -279.5t-242 -101.5q-130 0 -238 80zM141 1255v170l11 11h170l10 -11v-170l-10 -10h-170z" />
<glyph unicode="k" horiz-adv-x="972" d="M156 10v1446l10 12l143 21l10 -8v-838h17l293 350l14 8l215 21l10 -10l-329 -361l-47 -41l43 -49l213 -323q18 -26 32 -42.5t47 -36.5t70 -20q19 0 29 2l10 -10l-23 -131l-10 -10q-12 -2 -35 -2q-45 0 -85.5 13.5t-65.5 29t-52 44.5t-37 43t-28 42l-264 411h-17v-561 l-8 -10h-147z" />
<glyph unicode="l" horiz-adv-x="505" d="M152 225v1231l10 12l143 21l10 -8v-1245q0 -28 10 -48t25.5 -29t29.5 -12.5t28 -3.5h8l8 -10l-23 -129l-10 -10h-16q-18 0 -36 2.5t-45.5 9.5t-51 23t-44.5 40t-33.5 64.5t-12.5 91.5z" />
<glyph unicode="m" horiz-adv-x="1617" d="M111 991l10 13l125 18l12 -8l57 -144q4 12 12 28t30 42t51.5 46t80.5 35t113 15q183 0 254 -151q12 21 30 42t52.5 48t91 44t125.5 17q140 0 226.5 -92t86.5 -262v-672l-10 -10h-145l-8 10v639q0 124 -60.5 181t-157.5 57q-62 0 -213 -45q23 -79 23 -144v-688l-10 -10 h-144l-10 10v639q0 240 -198 240q-16 0 -47.5 -6.5t-57.5 -13t-62.5 -16.5t-41.5 -11v-832l-11 -10h-143l-10 10v789z" />
<glyph unicode="n" horiz-adv-x="1075" d="M111 991l10 13l125 18l12 -8l57 -144q4 12 12 28t30 42t51.5 46t80.5 35t113 15q141 0 233.5 -93t92.5 -261v-672l-10 -10h-144l-10 10v639q0 123 -65.5 181.5t-163.5 58.5q-16 0 -47.5 -6.5t-57.5 -13t-62.5 -16.5t-41.5 -11v-832l-11 -10h-143l-10 10v789z" />
<glyph unicode="o" d="M121 330v352q0 167 109.5 260.5t283.5 93.5t283.5 -93.5t109.5 -260.5v-352q0 -167 -109.5 -261t-283.5 -94t-283.5 94t-109.5 261zM285 365q0 -118 59 -180t170 -62q108 0 168.5 62.5t60.5 179.5v284q0 117 -60 178.5t-169 61.5q-111 0 -170 -61t-59 -179v-284z" />
<glyph unicode="p" horiz-adv-x="1040" d="M111 991l10 13l125 18l12 -8l57 -144q4 12 12 28t30 42t51.5 46t80.5 35t113 15q140 0 228 -92.5t88 -261.5v-352q0 -167 -104.5 -261t-270.5 -94q-132 0 -226 72l9 -94v-383l-11 -12l-143 -21l-10 8v1254zM326 340q0 -217 211 -217q97 0 157 63.5t60 178.5v284 q0 124 -61.5 182t-157.5 58q-16 0 -47.5 -6.5t-57.5 -13t-62.5 -16.5t-41.5 -11v-502z" />
<glyph unicode="q" horiz-adv-x="1034" d="M123 334v348q0 167 104.5 260.5t268.5 93.5q54 0 112.5 -16t90.5 -32l32 -15l135 37l11 -11v-1429l-11 -12l-143 -21l-10 8v500l10 90q-7 -16 -16 -31.5t-32 -40.5t-52 -43t-77.5 -31.5t-107.5 -13.5q-140 0 -227.5 93t-87.5 266zM287 362q0 -124 61 -181.5t160 -57.5 q31 0 205 47v502q0 107 -54 162t-157 55q-98 0 -156.5 -63t-58.5 -179v-285z" />
<glyph unicode="r" horiz-adv-x="632" d="M111 991l10 13l125 18l12 -8l57 -144q4 12 12 28t29.5 42t50.5 46t79 35t110 15l10 -12l-31 -172l-14 -10q-37 18 -106 18q-65 0 -129 -18v-832l-11 -10h-143l-10 10v789z" />
<glyph unicode="s" horiz-adv-x="866" d="M96 82l78 108l16 3q32 -27 98.5 -48.5t114.5 -21.5q205 0 205 160q0 42 -28 71.5t-72.5 47.5t-98.5 34t-108 38t-98.5 52t-72.5 83.5t-28 125.5q0 76 31.5 135.5t85 94.5t117.5 53t135 18q148 0 264 -80l4 -14l-80 -108h-14q-80 55 -170 55q-92 0 -148.5 -41.5 t-56.5 -112.5q0 -46 28 -77.5t72.5 -49t98.5 -33t108 -35.5t98.5 -49t72.5 -82t28 -126q0 -86 -29 -148t-81.5 -96t-115 -49t-140.5 -15q-89 0 -171 25t-141 70z" />
<glyph unicode="t" horiz-adv-x="776" d="M61 874v127l11 11h118l19 207l10 12l117 16l10 -8v-227h340l10 -11l-39 -127l-14 -10h-297v-493q0 -107 48.5 -175.5t131.5 -68.5q35 0 73 15.5t59 31.5l20 16l14 -2l64 -116l-4 -15q-119 -82 -240 -82q-146 0 -238 99t-92 284v506h-110z" />
<glyph unicode="u" horiz-adv-x="1060" d="M145 336v653l11 12l143 21l10 -8v-643q0 -127 60.5 -187.5t156.5 -60.5q24 0 76.5 14.5t92.5 28.5l40 14v809l10 12l144 21l10 -8v-813l51 -181l-10 -12l-125 -18l-12 8l-60 147q-10 -31 -29.5 -59t-52 -54t-84.5 -41.5t-118 -15.5q-141 0 -227.5 94.5t-86.5 266.5z" />
<glyph unicode="v" horiz-adv-x="946" d="M29 989l10 12l158 21l10 -8l242 -735l28 -109l29 109l233 712l13 10l163 21l7 -10l-375 -1018l-15 -8l-124 28l-15 13z" />
<glyph unicode="w" horiz-adv-x="1495" d="M29 989l10 12l154 21l10 -8l248 -735l28 -109q25 94 58 196.5t73.5 221t63.5 190.5v211l10 12l141 21l11 -8v-262l153 -473l29 -109l29 109l237 712l12 10l166 21l6 -10l-372 -1014l-15 -12l-139 28l-12 13l-158 479l-24 100q-34 -124 -107.5 -347t-85.5 -261l-14 -12 l-138 26l-12 13z" />
<glyph unicode="x" horiz-adv-x="997" d="M55 10l346 502l-329 477l10 12l149 21l15 -8l219 -340l31 -56l28 56l205 317l16 10l173 21l12 -8l-338 -494l352 -510l-8 -10h-168l-16 10l-228 350l-28 52l-27 -52l-225 -350l-17 -10h-164z" />
<glyph unicode="y" horiz-adv-x="952" d="M-68 -377l62 111l14 4q7 -7 21 -17.5t55.5 -28.5t83.5 -18q122 0 190 187l64 172l-23 8l-16 14l-352 934l10 12l160 21l10 -8l240 -738l30 -108q47 163 142 459.5t116 363.5l13 10l163 21l7 -10l-428 -1219q-45 -129 -127 -197.5t-195 -68.5q-127 0 -235 80z" />
<glyph unicode="z" horiz-adv-x="882" d="M84 102l494 762h-469l-11 10l23 127l14 11h641l10 -11v-96l-499 -758h487l10 -10v-127l-10 -10h-655l-15 10z" />
<glyph unicode="{" horiz-adv-x="786" d="M78 573l37 123l14 11q86 22 116.5 73t30.5 138v137q0 153 102 244.5t281 91.5h48l8 -11l-37 -118l-12 -11q-109 0 -172.5 -58.5t-63.5 -174.5v-96q0 -104 -45 -182.5t-131 -112.5q84 -37 130 -109t46 -168v-217q0 -119 63.5 -178t172.5 -59l12 -11l37 -118l-8 -11h-48 q-179 0 -281 93t-102 247v246q0 95 -40.5 151t-149.5 70z" />
<glyph unicode="|" horiz-adv-x="524" d="M178 -440v1894l10 12l144 21l10 -8v-1919l-10 -11h-144z" />
<glyph unicode="}" horiz-adv-x="784" d="M72 -233l37 118l12 11q109 0 172 59t63 178v217q0 96 46 168t130 109q-86 34 -131 112.5t-45 182.5v96q0 116 -63 174.5t-172 58.5l-12 11l-37 118l8 11h47q179 0 281 -91.5t102 -244.5v-137q0 -104 37.5 -150t148.5 -72l9 -14l-37 -117l-15 -10q-81 -23 -112 -76.5 t-31 -136.5v-246q0 -154 -102 -247t-281 -93h-47z" />
<glyph unicode="~" horiz-adv-x="1204" d="M125 553q0 169 79 252.5t202 83.5q60 0 110 -20.5t84.5 -49.5t64.5 -58.5t64 -50t70 -20.5q137 0 137 180l10 11h137l11 -11q0 -169 -79 -252t-202 -83q-60 0 -110 20.5t-84.5 49.5t-64.5 58t-64 49.5t-70 20.5q-137 0 -137 -180l-11 -10h-137z" />
<glyph unicode="&#xa1;" horiz-adv-x="522" d="M158 -465l39 1086l10 10h108l11 -10l43 -1057l-11 -13l-188 -24zM160 815v186l10 11h182l10 -11v-186l-10 -10h-182z" />
<glyph unicode="&#xa2;" horiz-adv-x="1064" d="M115 557v64q0 169 106 270t268 121v155l11 13l98 14l10 -8v-172q115 -10 208 -60t142 -141l-6 -12l-125 -51l-14 4q-30 46 -84.5 74t-120.5 36v-555q66 8 120.5 36.5t84.5 76.5l14 4l123 -51l6 -13q-49 -92 -141.5 -142t-206.5 -58v-152l-10 -10h-98l-11 10v154 q-161 18 -267.5 120t-106.5 273zM279 561q0 -96 58 -162.5t152 -85.5v547q-94 -19 -152 -84.5t-58 -159.5v-55z" />
<glyph unicode="&#xa3;" horiz-adv-x="1193" d="M113 98l6 13q5 0 13 0.5t29 5.5t38 13.5t32.5 27t18.5 43.5l47 348h-170l-10 10v127l10 10h184l21 162q20 159 116 249.5t240 90.5q48 0 92.5 -7.5t74 -18.5t52 -22t33.5 -18l10 -8l2 -14l-45 -113l-14 -4q-10 6 -27.5 16t-71.5 26t-108 16q-72 0 -124 -55.5t-68 -174.5 l-17 -125h332l8 -10l-37 -127l-12 -10h-307l-39 -305l-25 -103h49q69 0 178.5 -42t163.5 -42q67 0 113.5 43t46.5 133q0 25 -5 51.5t-10 39.5l-5 14l8 12l123 25l14 -6q27 -87 27 -142q0 -155 -82.5 -236t-210.5 -81q-65 0 -190 45t-189 45q-40 0 -103 -8.5t-106 -17.5 l-43 -9l-12 6z" />
<glyph unicode="&#xa5;" horiz-adv-x="1138" d="M121 1157l10 14l168 23l12 -8l221 -443l33 -79q45 100 136.5 280.5t107.5 212.5l10 12l182 25l13 -8l-215 -398h213l8 -10l-35 -123l-12 -10h-252l-74 -137v-59h320l8 -11l-35 -123l-12 -10h-281v-295l-10 -10h-143l-11 10v295h-319l-10 10v123l10 11h319v59l-77 137 h-242l-10 10v123l10 10h162z" />
<glyph unicode="&#xa6;" horiz-adv-x="561" d="M199 330l10 10h143l10 -10v-770l-10 -11h-143l-10 11v770zM199 707v747l8 12l143 23l12 -8v-774l-10 -11h-143z" />
<glyph unicode="&#xa7;" horiz-adv-x="868" d="M72 -305l96 96l14 -4q38 -42 97 -65t112 -23q74 0 127 41.5t53 118.5q0 17 -4 41l-161 1167l8 20l90 70l12 -12l66 -201l137 -983q8 -58 8 -90q0 -151 -86.5 -237.5t-249.5 -86.5q-191 0 -319 134v14zM141 1079q0 151 86.5 237.5t249.5 86.5q193 0 320 -133v-15l-97 -96 l-14 4q-38 42 -97 65t-112 23q-74 0 -127 -41t-53 -118q0 -17 4 -41l162 -1168l-8 -20l-90 -70l-13 12l-65 201l-137 983q-9 65 -9 90z" />
<glyph unicode="&#xa8;" d="M289 1260v159l10 11h150l10 -11v-159l-10 -11h-150zM569 1260v159l11 11h149l10 -11v-159l-10 -11h-149z" />
<glyph unicode="&#xa9;" horiz-adv-x="1613" d="M125 565v244q0 118 39.5 218t105.5 169t154.5 117.5t185 71t197.5 22.5q103 0 200 -22.5t185 -71t154 -117.5t104.5 -168.5t38.5 -218.5v-244q0 -119 -38.5 -219.5t-104.5 -169.5t-154 -117.5t-185 -71t-200 -22.5q-101 0 -197.5 22.5t-185 71t-154.5 117.5t-105.5 169.5 t-39.5 219.5zM258 606q0 -131 44.5 -231.5t121.5 -160.5t174 -90t209 -30q114 0 211 30t173.5 90t120.5 160.5t44 231.5v160q0 131 -44 232t-120.5 160.5t-173.5 89.5t-211 30q-112 0 -209 -30t-174 -89.5t-121.5 -160.5t-44.5 -232v-160zM487 565v236q0 150 85.5 230.5 t238.5 80.5q108 0 189.5 -49.5t111.5 -136.5l-6 -13l-105 -41l-14 5q-69 100 -176 100q-82 0 -133 -47.5t-51 -136.5v-220q0 -89 51 -135.5t133 -46.5q66 0 114.5 29t73.5 82l15 4l102 -37l6 -12q-30 -100 -111 -150.5t-200 -50.5q-153 0 -238.5 79.5t-85.5 229.5z" />
<glyph unicode="&#xaa;" horiz-adv-x="690" d="M96 934q0 94 50.5 141t138.5 47h108q8 0 17 2t14 4l4 2v52q0 94 -109 94q-64 0 -122 -39l-17 2l-51 78l4 16q84 64 186 64q106 0 171 -49t65 -150v-301l25 -121l-11 -12l-92 -12l-12 8l-27 86q-1 -4 -4 -10.5t-14.5 -23.5t-27 -30t-44.5 -23.5t-63 -10.5 q-78 0 -133.5 49.5t-55.5 136.5zM223 934q0 -33 23 -53.5t57 -20.5q20 0 51.5 7t52.5 13l21 7v182q-4 -6 -11 -15.5t-32 -25.5t-53 -16h-45q-30 0 -47 -22t-17 -56z" />
<glyph unicode="&#xab;" horiz-adv-x="1024" d="M90 500v14l258 389l19 12h153l12 -14l-266 -393l266 -393l-12 -15h-153l-19 13zM477 500v14l258 389l19 12h153l13 -14l-267 -393l267 -393l-13 -15h-153l-19 13z" />
<glyph unicode="&#xac;" horiz-adv-x="1071" d="M72 492v61l6 14l815 465l12 -4l66 -115l-4 -14l-29 -27l-133 -350l133 -350l29 -27l4 -14l-66 -115l-12 -4l-815 465z" />
<glyph unicode="&#xad;" horiz-adv-x="870" d="M170 459v143l10 10h527l8 -10l-37 -143l-12 -10h-486z" />
<glyph unicode="&#xae;" horiz-adv-x="966" d="M98 934v133q0 66 22 122t59.5 94.5t87.5 66t104.5 40.5t111.5 13q72 0 139.5 -21t123 -61t89 -106t33.5 -148v-133q0 -83 -33.5 -149t-89 -106.5t-123 -61.5t-139.5 -21t-139 21t-123 61.5t-89.5 106.5t-33.5 149zM193 956q0 -138 82.5 -207t207.5 -69q127 0 209 69 t82 207v86q0 139 -82 208t-209 69q-126 0 -208 -69t-82 -208v-86zM342 772v453l10 10h127q172 0 172 -145q0 -52 -31.5 -87t-78.5 -45l69 -92q13 -16 45 -16h7l10 -10l-10 -68l-11 -10h-24q-59 0 -97 59l-86 131h-4v-180l-10 -10h-78zM440 1028h39q30 0 52 16t22 46 q0 57 -74 57h-39v-119z" />
<glyph unicode="&#xaf;" horiz-adv-x="1030" d="M285 1255v119l10 10h459l8 -10l-25 -119l-12 -10h-430z" />
<glyph unicode="&#xb0;" horiz-adv-x="724" d="M90 1118v51q0 75 40 130t100.5 79.5t131.5 24.5t131.5 -24.5t101 -79.5t40.5 -130v-51q0 -75 -40.5 -130t-101 -80t-131.5 -25q-111 0 -191.5 61.5t-80.5 173.5zM221 1143q0 -135 141 -135q142 0 142 135q0 68 -38 101.5t-104 33.5t-103.5 -33.5t-37.5 -101.5z" />
<glyph unicode="&#xb1;" horiz-adv-x="1126" d="M193 -55l10 10h733l8 -10l-37 -142l-12 -10h-692l-10 10v142zM193 465v129l10 10h264v293l10 12l144 21l10 -8v-318h297l8 -10l-33 -129l-12 -10h-260v-330l-10 -10h-144l-10 10v330h-264z" />
<glyph unicode="&#xb2;" horiz-adv-x="747" d="M98 1427v11l11 16.5t31.5 37.5t52.5 47t73 37t94 17q105 0 181.5 -66.5t76.5 -180.5q0 -60 -32.5 -122.5t-81 -113.5t-97 -95t-88 -82t-47.5 -59h367l8 -10l-29 -106l-12 -10h-479l-12 10l-15 63q2 38 31 82.5t70.5 84.5t90 86t89.5 87t68.5 88.5t27.5 89.5 q0 52 -34 89.5t-87 37.5q-86 0 -159 -102h-11z" />
<glyph unicode="&#xb3;" horiz-adv-x="739" d="M78 897l2 12l92 70h16q2 -5 7 -12.5t21 -27t34 -34.5t47.5 -27t60.5 -12q61 0 104.5 32.5t43.5 88.5v21q0 56 -47 86t-133 30h-76l-8 11l37 104l12 10h35q83 0 122 30t39 79q0 57 -38 84.5t-99 27.5q-30 0 -58.5 -12t-44 -25.5t-33 -31.5t-21.5 -21l-17 -2l-88 60v14 q4 6 11 15.5t31.5 34.5t52.5 44.5t73 35t94 15.5q120 0 195.5 -63t75.5 -174q0 -52 -24 -98t-73 -72q59 -23 87 -68.5t28 -97.5v-47q0 -111 -82.5 -174.5t-198.5 -63.5q-55 0 -103.5 16.5t-79.5 39.5t-54 46t-33 39z" />
<glyph unicode="&#xb4;" d="M371 1219l123 208l14 9h221l10 -9l-252 -262h-12l-102 41z" />
<glyph unicode="&#xb6;" horiz-adv-x="1189" d="M115 733v256q0 83 24 150t65 111.5t97.5 75t119 43.5t132.5 13h557l8 -10l-20 -137l-13 -10h-374v-1665l-9 -9h-139l-10 9v776q-88 0 -164 22.5t-138.5 68.5t-99 124.5t-36.5 181.5zM817 -438v1544l10 10h138l10 -10v-1544l-10 -11h-138z" />
<glyph unicode="&#xb7;" horiz-adv-x="536" d="M164 442v193l10 10h188l11 -10v-193l-11 -10h-188z" />
<glyph unicode="&#xb8;" d="M317 -281l27 70l14 6q48 -33 91 -33q73 0 106 38.5t33 99.5q0 16 -8.5 41t-17.5 42l-9 17h61q4 -3 10.5 -9t23 -24.5t29.5 -37t23.5 -46t10.5 -53.5q0 -88 -59.5 -139t-149.5 -51q-49 0 -99.5 16.5t-80.5 48.5z" />
<glyph unicode="&#xb9;" horiz-adv-x="741" d="M106 758v106l11 10h190v582h-139l-12 10l-27 107l8 10h295l10 -10v-699h197l8 -10l-26 -106l-13 -10h-491z" />
<glyph unicode="&#xba;" horiz-adv-x="708" d="M109 967v209q0 104 68.5 162.5t176.5 58.5t177 -58.5t69 -162.5v-209q0 -104 -69 -161.5t-177 -57.5t-176.5 57.5t-68.5 161.5zM236 989q0 -61 31 -92t87 -31t87.5 31t31.5 92v168q0 59 -31 89t-88 30t-87.5 -30t-30.5 -89v-168z" />
<glyph unicode="&#xbb;" horiz-adv-x="1024" d="M104 115l267 393l-267 393l13 14h153l19 -12l258 -389v-14l-258 -387l-19 -13h-153zM492 115l266 393l-266 393l12 14h153l19 -12l258 -389v-14l-258 -387l-19 -13h-153z" />
<glyph unicode="&#xbc;" horiz-adv-x="1595" d="M88 557v107l10 10h191v581h-139l-13 11l-26 106l8 10h295l10 -10v-698h197l8 -10l-27 -107l-12 -10h-492zM535 10l319 1002l14 8l109 -19l8 -12l-311 -979l-12 -10h-121zM874 301l371 512l15 10l94 19l10 -8v-498h147l9 -10l-29 -105l-10 -10h-117v-195l-10 -12l-115 -16 l-10 8v215h-320l-14 8zM1049 336h182v184l4 78q-21 -36 -45 -71.5t-60.5 -85.5t-48.5 -68z" />
<glyph unicode="&#xbd;" horiz-adv-x="1632" d="M88 557v107l10 10h191v581h-139l-13 11l-26 106l8 10h295l10 -10v-698h197l8 -10l-27 -107l-12 -10h-492zM535 10l319 1002l14 8l109 -19l8 -12l-311 -979l-12 -10h-121zM985 680v10l11 16.5t31.5 37.5t52.5 47.5t73 37.5t94 17q105 0 181.5 -67t76.5 -181 q0 -60 -32.5 -122t-81 -113t-97 -95t-88 -82t-47.5 -59h367l8 -10l-29 -107l-12 -10h-479l-13 10l-14 64q2 38 31 82.5t70.5 84.5t90 86t89.5 87t68.5 88.5t27.5 89.5q0 52 -34 89.5t-87 37.5q-86 0 -160 -103h-10z" />
<glyph unicode="&#xbe;" horiz-adv-x="1585" d="M80 696l2 13l92 69h16q2 -5 7 -12.5t21 -26.5t34 -34t47.5 -27t60.5 -12q61 0 104.5 32t43.5 88v21q0 56 -47 86.5t-133 30.5h-76l-8 10l37 104l12 11h35q83 0 122 29.5t39 78.5q0 57 -38 85t-99 28q-30 0 -58.5 -12t-44 -25.5t-33 -31.5t-21.5 -21l-17 -2l-88 59v14 q4 6 11 16t31.5 35t52.5 44t73 35t94 16q120 0 195.5 -63.5t75.5 -174.5q0 -52 -24 -98t-73 -72q59 -23 87 -68.5t28 -97.5v-47q0 -111 -82.5 -174t-198.5 -63q-55 0 -103.5 16t-79.5 39.5t-54 46.5t-33 39zM528 10l320 1002l14 8l109 -19l8 -12l-311 -979l-13 -10h-120z M864 301l371 512l14 10l94 19l11 -8v-498h147l8 -10l-28 -105l-11 -10h-116v-195l-11 -12l-114 -16l-10 8v215h-320l-14 8zM1038 336h183v184l4 78q-21 -36 -45 -71.5t-60.5 -85.5t-48.5 -68z" />
<glyph unicode="&#xbf;" horiz-adv-x="978" d="M98 94q0 152 96.5 249t249.5 112l7 166l10 10h121l10 -10v-293l-10 -13l-140 -22q-82 -13 -127 -76.5t-45 -157.5v-145q0 -109 61 -166t171 -57q113 0 177 55.5t64 167.5l13 8l141 -31l10 -12q0 -166 -114.5 -259t-290.5 -93t-290 93t-114 259v215zM420 815v186l10 11 h182l11 -11v-186l-11 -10h-182z" />
<glyph unicode="&#xc0;" horiz-adv-x="1208" d="M25 10l477 1352l12 10l172 23l12 -9l486 -1376l-6 -10h-164l-13 10l-112 330h-572l-110 -330l-10 -10h-166zM358 1763l11 9h221l14 -9l123 -209l-2 -12l-102 -41h-13zM371 496h467l-213 630l-21 88l-20 -88z" />
<glyph unicode="&#xc1;" horiz-adv-x="1208" d="M25 10l477 1352l12 10l172 23l12 -9l486 -1376l-6 -10h-164l-13 10l-112 330h-572l-110 -330l-10 -10h-166zM371 496h467l-213 630l-21 88l-20 -88zM479 1554l123 209l14 9h222l10 -9l-252 -262h-12l-103 41z" />
<glyph unicode="&#xc2;" horiz-adv-x="1208" d="M25 10l477 1352l12 10l172 23l12 -9l486 -1376l-6 -10h-164l-13 10l-112 330h-572l-110 -330l-10 -10h-166zM334 1552l188 209l19 11h123l18 -11l188 -209l-4 -14l-112 -37h-15l-137 160l-137 -160h-14l-113 37zM371 496h467l-213 630l-21 88l-20 -88z" />
<glyph unicode="&#xc3;" horiz-adv-x="1208" d="M25 10l477 1352l12 10l172 23l12 -9l486 -1376l-6 -10h-164l-13 10l-112 330h-572l-110 -330l-10 -10h-166zM313 1604v14q44 71 87 103t108 32q37 0 68.5 -14.5t48.5 -32.5t39.5 -32.5t44.5 -14.5q31 0 98 67l14 5l74 -56v-14q-39 -69 -86 -102t-113 -33 q-36 0 -66.5 14.5t-48 31.5t-39.5 31.5t-44 14.5q-37 0 -97 -66l-14 -4zM371 496h467l-213 630l-21 88l-20 -88z" />
<glyph unicode="&#xc4;" horiz-adv-x="1208" d="M25 10l477 1352l12 10l172 23l12 -9l486 -1376l-6 -10h-164l-13 10l-112 330h-572l-110 -330l-10 -10h-166zM371 496h467l-213 630l-21 88l-20 -88zM379 1595v160l10 10h150l10 -10v-160l-10 -10h-150zM659 1595v160l11 10h149l10 -10v-160l-10 -10h-149z" />
<glyph unicode="&#xc5;" horiz-adv-x="1208" d="M25 10l477 1352l12 10l172 23l12 -9l486 -1376l-6 -10h-164l-13 10l-112 330h-572l-110 -330l-10 -10h-166zM371 496h467l-213 630l-21 88l-20 -88zM430 1636v27q0 64 49 98.5t117 34.5t117 -34.5t49 -98.5v-27q0 -64 -49 -99.5t-117 -35.5t-117 35.5t-49 99.5zM520 1649 q0 -34 21 -51t55 -17t55 17t21 51t-21 50.5t-55 16.5t-55 -16.5t-21 -50.5z" />
<glyph unicode="&#xc6;" horiz-adv-x="1568" d="M18 10l529 1362l12 10h827l11 -10v-143l-11 -10h-569l84 -410h477l11 -10l-29 -144l-12 -10h-412l98 -481h420l8 -10l-20 -144l-12 -10h-527l-12 10l-68 326h-493l-119 -326l-10 -10h-176zM391 500h400l-127 626l-17 93l-24 -93z" />
<glyph unicode="&#xc7;" horiz-adv-x="1284" d="M145 477v418q0 244 145 376t392 132q170 0 297 -74.5t182 -208.5l-6 -12l-137 -57l-14 4q-42 85 -127.5 134.5t-194.5 49.5q-162 0 -261 -92.5t-99 -265.5v-385q0 -177 98 -267t262 -90q126 0 214.5 49t131.5 142l14 4l134 -51l6 -13q-47 -133 -162.5 -207.5 t-284.5 -85.5q72 -72 72 -147q0 -88 -59.5 -139t-149.5 -51q-49 0 -99.5 16.5t-80.5 48.5l-4 14l26 70l15 6q48 -33 90 -33q73 0 106 38.5t33 99.5q0 24 -22 75q-239 6 -378 135t-139 367z" />
<glyph unicode="&#xc8;" horiz-adv-x="1050" d="M190 10v1362l11 10h710l11 -10v-143l-11 -10h-549v-410h478l8 -10l-37 -144l-12 -10h-437v-481h551l9 -10l-21 -144l-12 -10h-688zM330 1763l10 9h221l14 -9l123 -209l-2 -12l-102 -41h-12z" />
<glyph unicode="&#xc9;" horiz-adv-x="1050" d="M190 10v1362l11 10h710l11 -10v-143l-11 -10h-549v-410h478l8 -10l-37 -144l-12 -10h-437v-481h551l9 -10l-21 -144l-12 -10h-688zM457 1554l123 209l14 9h221l10 -9l-252 -262h-12l-102 41z" />
<glyph unicode="&#xca;" horiz-adv-x="1050" d="M190 10v1362l11 10h710l11 -10v-143l-11 -10h-549v-410h478l8 -10l-37 -144l-12 -10h-437v-481h551l9 -10l-21 -144l-12 -10h-688zM303 1552l189 209l18 11h123l18 -11l189 -209l-4 -14l-113 -37h-14l-138 160l-137 -160h-14l-113 37z" />
<glyph unicode="&#xcb;" horiz-adv-x="1050" d="M190 10v1362l11 10h710l11 -10v-143l-11 -10h-549v-410h478l8 -10l-37 -144l-12 -10h-437v-481h551l9 -10l-21 -144l-12 -10h-688zM348 1595v160l10 10h150l10 -10v-160l-10 -10h-150zM629 1595v160l10 10h149l11 -10v-160l-11 -10h-149z" />
<glyph unicode="&#xcc;" horiz-adv-x="555" d="M31 1763l10 9h221l14 -9l123 -209l-2 -12l-102 -41h-12zM190 10v1352l11 12l151 21l10 -9v-1376l-10 -10h-151z" />
<glyph unicode="&#xcd;" horiz-adv-x="555" d="M158 1554l123 209l14 9h221l10 -9l-252 -262h-12l-102 41zM190 10v1352l11 12l151 21l10 -9v-1376l-10 -10h-151z" />
<glyph unicode="&#xce;" horiz-adv-x="555" d="M8 1552l189 209l18 11h123l18 -11l189 -209l-4 -14l-113 -37h-14l-138 160l-137 -160h-14l-113 37zM190 10v1352l11 12l151 21l10 -9v-1376l-10 -10h-151z" />
<glyph unicode="&#xcf;" horiz-adv-x="555" d="M49 1595v160l10 10h150l10 -10v-160l-10 -10h-150zM190 10v1352l11 12l151 21l10 -9v-1376l-10 -10h-151zM330 1595v160l10 10h149l11 -10v-160l-11 -10h-149z" />
<glyph unicode="&#xd0;" horiz-adv-x="1372" d="M115 616v144l10 10h94v602l10 10h453q251 0 398 -130.5t147 -370.5v-383q0 -242 -146.5 -370t-398.5 -128h-453l-10 10v596h-94zM391 164h291q166 0 267.5 88t101.5 264v346q0 173 -102.5 265t-266.5 92h-291v-449h260l8 -10l-36 -144l-13 -10h-219v-442z" />
<glyph unicode="&#xd1;" horiz-adv-x="1447" d="M190 10v1352l11 12l151 21l15 -9l663 -999l53 -98v1073l11 12l151 21l10 -9v-1376l-10 -10h-145l-17 10l-667 1008l-54 98v-1106l-10 -10h-151zM449 1604v14q44 71 86.5 103t107.5 32q37 0 68.5 -14.5t48.5 -32.5t39.5 -32.5t44.5 -14.5q31 0 98 67l14 5l74 -56v-14 q-39 -69 -86 -102t-113 -33q-36 0 -66.5 14.5t-48 31.5t-39.5 31.5t-44 14.5q-36 0 -96 -66l-15 -4z" />
<glyph unicode="&#xd2;" horiz-adv-x="1368" d="M145 477v418q0 244 146 376t393 132t393 -132t146 -376v-418q0 -242 -145.5 -372t-393.5 -130t-393.5 130t-145.5 372zM322 496q0 -176 99 -266.5t263 -90.5t263.5 90.5t99.5 266.5v385q0 173 -100 265.5t-263 92.5t-262.5 -92.5t-99.5 -265.5v-385zM434 1763l10 9h222 l14 -9l123 -209l-2 -12l-103 -41h-12z" />
<glyph unicode="&#xd3;" horiz-adv-x="1368" d="M145 477v418q0 244 146 376t393 132t393 -132t146 -376v-418q0 -242 -145.5 -372t-393.5 -130t-393.5 130t-145.5 372zM322 496q0 -176 99 -266.5t263 -90.5t263.5 90.5t99.5 266.5v385q0 173 -100 265.5t-263 92.5t-262.5 -92.5t-99.5 -265.5v-385zM571 1554l123 209 l15 9h221l10 -9l-252 -262h-12l-103 41z" />
<glyph unicode="&#xd4;" horiz-adv-x="1368" d="M145 477v418q0 244 146 376t393 132t393 -132t146 -376v-418q0 -242 -145.5 -372t-393.5 -130t-393.5 130t-145.5 372zM322 496q0 -176 99 -266.5t263 -90.5t263.5 90.5t99.5 266.5v385q0 173 -100 265.5t-263 92.5t-262.5 -92.5t-99.5 -265.5v-385zM418 1552l188 209 l19 11h123l18 -11l188 -209l-4 -14l-112 -37h-15l-137 160l-137 -160h-14l-113 37z" />
<glyph unicode="&#xd5;" horiz-adv-x="1368" d="M145 477v418q0 244 146 376t393 132t393 -132t146 -376v-418q0 -242 -145.5 -372t-393.5 -130t-393.5 130t-145.5 372zM322 496q0 -176 99 -266.5t263 -90.5t263.5 90.5t99.5 266.5v385q0 173 -100 265.5t-263 92.5t-262.5 -92.5t-99.5 -265.5v-385zM397 1604v14 q44 71 87 103t108 32q37 0 68.5 -14.5t48.5 -32.5t39.5 -32.5t44.5 -14.5q31 0 98 67l14 5l74 -56v-14q-39 -69 -86 -102t-113 -33q-36 0 -66.5 14.5t-48 31.5t-39.5 31.5t-44 14.5q-37 0 -97 -66l-14 -4z" />
<glyph unicode="&#xd6;" horiz-adv-x="1368" d="M145 477v418q0 244 146 376t393 132t393 -132t146 -376v-418q0 -242 -145.5 -372t-393.5 -130t-393.5 130t-145.5 372zM322 496q0 -176 99 -266.5t263 -90.5t263.5 90.5t99.5 266.5v385q0 173 -100 265.5t-263 92.5t-262.5 -92.5t-99.5 -265.5v-385zM463 1595v160l10 10 h150l10 -10v-160l-10 -10h-150zM743 1595v160l11 10h149l10 -10v-160l-10 -10h-149z" />
<glyph unicode="&#xd7;" horiz-adv-x="1126" d="M190 799l3 14l116 86l15 -2l249 -250l261 262h14l88 -118l-6 -15l-242 -244l260 -260v-14l-100 -100h-14l-261 258l-264 -264h-14l-100 100v14l264 264z" />
<glyph unicode="&#xd8;" horiz-adv-x="1368" d="M145 477v418q0 244 146 376t393 132q183 0 313 -74l54 92l14 4l100 -36l4 -11l-73 -127q127 -137 127 -356v-418q0 -242 -145.5 -372t-393.5 -130q-166 0 -289 60l-65 -113l-13 -4l-92 51l-4 11l72 122q-148 132 -148 375zM322 496q0 -144 65 -230l522 910 q-89 63 -225 63q-163 0 -262.5 -92.5t-99.5 -265.5v-385zM481 184q83 -45 203 -45q164 0 263.5 90.5t99.5 266.5v385q0 115 -50 200z" />
<glyph unicode="&#xd9;" horiz-adv-x="1423" d="M176 477v885l10 12l152 21l10 -9v-890q0 -176 100.5 -266.5t262.5 -90.5q167 0 264.5 90t97.5 267v866l10 12l152 21l10 -9v-909q0 -244 -140.5 -373t-393.5 -129q-249 0 -392 129.5t-143 372.5zM467 1763l10 9h221l15 -9l123 -209l-2 -12l-103 -41h-12z" />
<glyph unicode="&#xda;" horiz-adv-x="1423" d="M176 477v885l10 12l152 21l10 -9v-890q0 -176 100.5 -266.5t262.5 -90.5q167 0 264.5 90t97.5 267v866l10 12l152 21l10 -9v-909q0 -244 -140.5 -373t-393.5 -129q-249 0 -392 129.5t-143 372.5zM604 1554l123 209l14 9h222l10 -9l-252 -262h-12l-103 41z" />
<glyph unicode="&#xdb;" horiz-adv-x="1423" d="M176 477v885l10 12l152 21l10 -9v-890q0 -176 100.5 -266.5t262.5 -90.5q167 0 264.5 90t97.5 267v866l10 12l152 21l10 -9v-909q0 -244 -140.5 -373t-393.5 -129q-249 0 -392 129.5t-143 372.5zM440 1552l189 209l18 11h123l18 -11l189 -209l-4 -14l-113 -37h-14 l-137 160l-138 -160h-14l-113 37z" />
<glyph unicode="&#xdc;" horiz-adv-x="1423" d="M176 477v885l10 12l152 21l10 -9v-890q0 -176 100.5 -266.5t262.5 -90.5q167 0 264.5 90t97.5 267v866l10 12l152 21l10 -9v-909q0 -244 -140.5 -373t-393.5 -129q-249 0 -392 129.5t-143 372.5zM485 1595v160l11 10h149l10 -10v-160l-10 -10h-149zM766 1595v160l10 10 h150l10 -10v-160l-10 -10h-150z" />
<glyph unicode="&#xdd;" horiz-adv-x="1052" d="M25 1358l10 14l172 23l12 -9l275 -544l32 -80q54 120 163 335t132 261l10 12l187 25l12 -9l-418 -780v-596l-10 -10h-151l-11 10v596zM401 1554l123 209l15 9h221l10 -9l-252 -262h-12l-103 41z" />
<glyph unicode="&#xde;" horiz-adv-x="1138" d="M190 10v1352l11 12l151 21l10 -9v-288h199q496 0 496 -412q0 -92 -28 -171t-82.5 -140.5t-143.5 -97t-203 -35.5q-198 0 -248 118l10 -81v-269l-10 -10h-151zM362 430q103 -35 195 -35q144 0 233 72t89 215q0 258 -318 258h-199v-510z" />
<glyph unicode="&#xdf;" horiz-adv-x="1224" d="M66 874v127l10 11h123v149q0 81 31.5 145.5t84 103.5t117.5 59t137 20t137 -20t118 -59t84.5 -103.5t31.5 -145.5q0 -63 -23.5 -114.5t-57 -87t-66.5 -70t-56.5 -80t-23.5 -100.5q0 -35 19 -60.5t50.5 -39.5t71.5 -28t82 -26t82 -34t71.5 -50t50.5 -76.5t19 -111.5 q0 -86 -29 -148t-81 -96t-115 -49t-141 -15q-87 0 -169 25.5t-141 69.5l-2 12l78 108l16 3q32 -27 98.5 -48.5t114.5 -21.5q207 0 207 160q0 43 -24 73.5t-62 48.5t-84 33.5t-92 35t-84 47t-62 75.5t-24 113q0 66 22 121t53.5 92t62.5 71.5t53 77t22 90.5q0 86 -60.5 133 t-146.5 47q-88 0 -147.5 -44t-59.5 -128v-1413l-40 -207l-13 -14l-100 59l-10 19v1251h-123z" />
<glyph unicode="&#xe0;" horiz-adv-x="970" d="M82 276q0 143 98 224q97 78 320 78h71q59 0 91 20v96q0 57 -16 96.5t-46.5 60.5t-66 29.5t-82.5 8.5q-126 0 -203 -62l-17 2l-69 103l4 16q114 88 287 88q169 0 270.5 -75t101.5 -236v-524l52 -181l-11 -12l-125 -18l-12 8l-59 147q-2 -7 -6.5 -18.5t-25.5 -40.5 t-49 -51.5t-80 -41t-116 -18.5q-58 0 -110.5 16t-99 49.5t-74 94t-27.5 141.5zM236 1427l10 9h221l14 -9l123 -208l-2 -13l-102 -41h-13zM254 274q0 -68 45 -109.5t121 -41.5q45 0 105.5 14.5t98.5 29.5l38 15v346q-17 -55 -68 -78.5t-113 -23.5h-49q-31 0 -59 -6.5 t-56.5 -22t-45.5 -47.5t-17 -76z" />
<glyph unicode="&#xe1;" horiz-adv-x="970" d="M82 276q0 143 98 224q97 78 320 78h71q59 0 91 20v96q0 57 -16 96.5t-46.5 60.5t-66 29.5t-82.5 8.5q-126 0 -203 -62l-17 2l-69 103l4 16q114 88 287 88q169 0 270.5 -75t101.5 -236v-524l52 -181l-11 -12l-125 -18l-12 8l-59 147q-2 -7 -6.5 -18.5t-25.5 -40.5 t-49 -51.5t-80 -41t-116 -18.5q-58 0 -110.5 16t-99 49.5t-74 94t-27.5 141.5zM254 274q0 -68 45 -109.5t121 -41.5q45 0 105.5 14.5t98.5 29.5l38 15v346q-17 -55 -68 -78.5t-113 -23.5h-49q-31 0 -59 -6.5t-56.5 -22t-45.5 -47.5t-17 -76zM373 1219l123 208l14 9h221 l10 -9l-252 -262h-12l-102 41z" />
<glyph unicode="&#xe2;" horiz-adv-x="970" d="M82 276q0 143 98 224q97 78 320 78h71q59 0 91 20v96q0 57 -16 96.5t-46.5 60.5t-66 29.5t-82.5 8.5q-126 0 -203 -62l-17 2l-69 103l4 16q114 88 287 88q169 0 270.5 -75t101.5 -236v-524l52 -181l-11 -12l-125 -18l-12 8l-59 147q-2 -7 -6.5 -18.5t-25.5 -40.5 t-49 -51.5t-80 -41t-116 -18.5q-58 0 -110.5 16t-99 49.5t-74 94t-27.5 141.5zM219 1217l189 208l18 11h123l18 -11l189 -208l-4 -15l-113 -37h-14l-138 160l-137 -160h-14l-113 37zM254 274q0 -68 45 -109.5t121 -41.5q45 0 105.5 14.5t98.5 29.5l38 15v346 q-17 -55 -68 -78.5t-113 -23.5h-49q-31 0 -59 -6.5t-56.5 -22t-45.5 -47.5t-17 -76z" />
<glyph unicode="&#xe3;" horiz-adv-x="970" d="M82 276q0 143 98 224q97 78 320 78h71q59 0 91 20v96q0 57 -16 96.5t-46.5 60.5t-66 29.5t-82.5 8.5q-126 0 -203 -62l-17 2l-69 103l4 16q114 88 287 88q169 0 270.5 -75t101.5 -236v-524l52 -181l-11 -12l-125 -18l-12 8l-59 147q-2 -7 -6.5 -18.5t-25.5 -40.5 t-49 -51.5t-80 -41t-116 -18.5q-58 0 -110.5 16t-99 49.5t-74 94t-27.5 141.5zM199 1268v14q44 71 86.5 103t107.5 32q37 0 68.5 -14.5t48.5 -32.5t39.5 -32.5t44.5 -14.5q30 0 98 68l15 4l73 -56v-14q-39 -69 -85.5 -102t-112.5 -33q-36 0 -66.5 14.5t-48 31.5t-40 31.5 t-44.5 14.5q-37 0 -96 -65l-15 -5zM254 274q0 -68 45 -109.5t121 -41.5q45 0 105.5 14.5t98.5 29.5l38 15v346q-17 -55 -68 -78.5t-113 -23.5h-49q-31 0 -59 -6.5t-56.5 -22t-45.5 -47.5t-17 -76z" />
<glyph unicode="&#xe4;" horiz-adv-x="970" d="M82 276q0 143 98 224q97 78 320 78h71q59 0 91 20v96q0 57 -16 96.5t-46.5 60.5t-66 29.5t-82.5 8.5q-126 0 -203 -62l-17 2l-69 103l4 16q114 88 287 88q169 0 270.5 -75t101.5 -236v-524l52 -181l-11 -12l-125 -18l-12 8l-59 147q-2 -7 -6.5 -18.5t-25.5 -40.5 t-49 -51.5t-80 -41t-116 -18.5q-58 0 -110.5 16t-99 49.5t-74 94t-27.5 141.5zM254 274q0 -68 45 -109.5t121 -41.5q45 0 105.5 14.5t98.5 29.5l38 15v346q-17 -55 -68 -78.5t-113 -23.5h-49q-31 0 -59 -6.5t-56.5 -22t-45.5 -47.5t-17 -76zM264 1260v159l10 11h150l10 -11 v-159l-10 -11h-150zM545 1260v159l10 11h150l10 -11v-159l-10 -11h-150z" />
<glyph unicode="&#xe5;" horiz-adv-x="970" d="M82 276q0 143 98 224q97 78 320 78h71q59 0 91 20v96q0 57 -16 96.5t-46.5 60.5t-66 29.5t-82.5 8.5q-126 0 -203 -62l-17 2l-69 103l4 16q114 88 287 88q169 0 270.5 -75t101.5 -236v-524l52 -181l-11 -12l-125 -18l-12 8l-59 147q-2 -7 -6.5 -18.5t-25.5 -40.5 t-49 -51.5t-80 -41t-116 -18.5q-58 0 -110.5 16t-99 49.5t-74 94t-27.5 141.5zM254 274q0 -68 45 -109.5t121 -41.5q45 0 105.5 14.5t98.5 29.5l38 15v346q-17 -55 -68 -78.5t-113 -23.5h-49q-31 0 -59 -6.5t-56.5 -22t-45.5 -47.5t-17 -76zM324 1300v27q0 64 48.5 98.5 t116.5 34.5t117 -34.5t49 -98.5v-27q0 -64 -49 -99.5t-117 -35.5t-116.5 35.5t-48.5 99.5zM414 1313q0 -34 20.5 -51t54.5 -17t55 17t21 51t-21 50.5t-55 16.5t-54.5 -16.5t-20.5 -50.5z" />
<glyph unicode="&#xe6;" horiz-adv-x="1513" d="M82 283q0 82 29.5 142t83.5 94t120.5 49.5t149.5 15.5h102q58 0 90 20v90q0 57 -16 96.5t-46.5 60.5t-66 29.5t-82.5 8.5q-125 0 -202 -62l-17 2l-69 103l4 16q114 88 287 88q213 0 303 -127q96 127 288 127q94 0 164.5 -27t110 -72.5t58 -97t18.5 -108.5 q0 -152 -91 -229.5t-239 -77.5q-57 0 -102.5 11t-70.5 25t-44 33t-24 28t-9 18l10 -76v-98q0 -116 62 -179t168 -63q88 0 140 27t83 81l14 5l123 -43l6 -13q-36 -97 -131 -151t-227 -54q-272 0 -363 172q-7 -14 -18 -30t-37.5 -43.5t-58.5 -47.5t-83.5 -35.5t-109.5 -15.5 q-130 0 -218.5 83.5t-88.5 224.5zM250 283q0 -68 45 -114t121 -46q63 0 126 19t89.5 34t42.5 27q-17 66 -17 127v205q-17 -55 -67.5 -79t-112.5 -24h-49q-31 0 -59 -6t-56.5 -21t-45.5 -46.5t-17 -75.5zM821 606q43 -33 215 -33q82 0 136.5 39t54.5 127q0 61 -47.5 104.5 t-145.5 43.5q-213 0 -213 -236v-45z" />
<glyph unicode="&#xe7;" horiz-adv-x="966" d="M121 330v350q0 160 106.5 258t292.5 98q119 0 212.5 -54t135.5 -155l-6 -12l-123 -43l-14 4q-28 53 -84 83t-131 30q-105 0 -165 -62.5t-60 -179.5v-282q0 -117 60 -179.5t165 -62.5q165 0 225 108l15 5l122 -43l7 -13q-35 -90 -116.5 -142t-195.5 -61q72 -72 72 -147 q0 -88 -59.5 -139t-149.5 -51q-49 0 -99.5 16.5t-80.5 48.5l-4 14l26 70l15 6q48 -33 90 -33q73 0 106 38.5t33 99.5q0 24 -22 75q-175 7 -274 104t-99 251z" />
<glyph unicode="&#xe8;" horiz-adv-x="976" d="M121 330v344q0 169 106.5 265.5t282.5 96.5q94 0 166 -27t112 -71.5t60 -96.5t20 -108q0 -147 -93 -224t-245 -77q-57 0 -103.5 11t-72 25t-45.5 33t-26 28.5t-9 17.5l11 -76v-106q0 -117 61.5 -179.5t167.5 -62.5q88 0 140 27t83 81l15 5l122 -43l7 -13 q-36 -97 -131.5 -151t-227.5 -54q-191 0 -296 91t-105 264zM252 1427l10 9h221l15 -9l123 -208l-3 -13l-102 -41h-12zM285 614q87 -36 198 -36q213 0 213 163q0 61 -48 104.5t-144 43.5q-105 0 -162 -60.5t-57 -177.5v-37z" />
<glyph unicode="&#xe9;" horiz-adv-x="976" d="M121 330v344q0 169 106.5 265.5t282.5 96.5q94 0 166 -27t112 -71.5t60 -96.5t20 -108q0 -147 -93 -224t-245 -77q-57 0 -103.5 11t-72 25t-45.5 33t-26 28.5t-9 17.5l11 -76v-106q0 -117 61.5 -179.5t167.5 -62.5q88 0 140 27t83 81l15 5l122 -43l7 -13 q-36 -97 -131.5 -151t-227.5 -54q-191 0 -296 91t-105 264zM285 614q87 -36 198 -36q213 0 213 163q0 61 -48 104.5t-144 43.5q-105 0 -162 -60.5t-57 -177.5v-37zM389 1219l123 208l14 9h222l10 -9l-252 -262h-12l-103 41z" />
<glyph unicode="&#xea;" horiz-adv-x="976" d="M121 330v344q0 169 106.5 265.5t282.5 96.5q94 0 166 -27t112 -71.5t60 -96.5t20 -108q0 -147 -93 -224t-245 -77q-57 0 -103.5 11t-72 25t-45.5 33t-26 28.5t-9 17.5l11 -76v-106q0 -117 61.5 -179.5t167.5 -62.5q88 0 140 27t83 81l15 5l122 -43l7 -13 q-36 -97 -131.5 -151t-227.5 -54q-191 0 -296 91t-105 264zM236 1217l188 208l18 11h123l19 -11l188 -208l-4 -15l-113 -37h-14l-137 160l-137 -160h-15l-112 37zM285 614q87 -36 198 -36q213 0 213 163q0 61 -48 104.5t-144 43.5q-105 0 -162 -60.5t-57 -177.5v-37z" />
<glyph unicode="&#xeb;" horiz-adv-x="976" d="M121 330v344q0 169 106.5 265.5t282.5 96.5q94 0 166 -27t112 -71.5t60 -96.5t20 -108q0 -147 -93 -224t-245 -77q-57 0 -103.5 11t-72 25t-45.5 33t-26 28.5t-9 17.5l11 -76v-106q0 -117 61.5 -179.5t167.5 -62.5q88 0 140 27t83 81l15 5l122 -43l7 -13 q-36 -97 -131.5 -151t-227.5 -54q-191 0 -296 91t-105 264zM281 1260v159l10 11h149l11 -11v-159l-11 -11h-149zM285 614q87 -36 198 -36q213 0 213 163q0 61 -48 104.5t-144 43.5q-105 0 -162 -60.5t-57 -177.5v-37zM561 1260v159l10 11h150l10 -11v-159l-10 -11h-150z" />
<glyph unicode="&#xec;" horiz-adv-x="473" d="M-18 1427l10 9h221l14 -9l123 -208l-2 -13l-102 -41h-13zM154 10v979l10 12l143 21l10 -8v-1004l-10 -10h-143z" />
<glyph unicode="&#xed;" horiz-adv-x="473" d="M119 1219l123 208l14 9h221l10 -9l-251 -262h-13l-102 41zM154 10v979l10 12l143 21l10 -8v-1004l-10 -10h-143z" />
<glyph unicode="&#xee;" horiz-adv-x="473" d="M-35 1217l189 208l18 11h123l18 -11l189 -208l-4 -15l-113 -37h-14l-138 160l-137 -160h-14l-113 37zM154 10v979l10 12l143 21l10 -8v-1004l-10 -10h-143z" />
<glyph unicode="&#xef;" horiz-adv-x="473" d="M10 1260v159l10 11h150l10 -11v-159l-10 -11h-150zM154 10v979l10 12l143 21l10 -8v-1004l-10 -10h-143zM291 1260v159l10 11h150l10 -11v-159l-10 -11h-150z" />
<glyph unicode="&#xf0;" horiz-adv-x="1024" d="M123 330v291q0 169 103 261.5t270 92.5q127 0 225 -70v56q0 137 -72 237l-221 -113l-12 5l-47 94l2 14l182 92q-64 46 -176 99l-8 14l45 108l16 9q165 -67 268 -154l148 76l12 -2l49 -97l-4 -12l-115 -61q89 -124 89 -269v-671q0 -169 -103.5 -262t-277.5 -93 q-166 0 -269.5 94t-103.5 261zM287 365q0 -115 59 -178.5t156 -63.5q96 0 153.5 63t57.5 179v245q0 107 -54 162t-157 55q-97 0 -156 -62t-59 -177v-223z" />
<glyph unicode="&#xf1;" horiz-adv-x="1075" d="M111 991l10 13l125 18l12 -8l57 -144q4 12 12 28t30 42t51.5 46t80.5 35t113 15q141 0 233.5 -93t92.5 -261v-672l-10 -10h-144l-10 10v639q0 123 -65.5 181.5t-163.5 58.5q-16 0 -47.5 -6.5t-57.5 -13t-62.5 -16.5t-41.5 -11v-832l-11 -10h-143l-10 10v789zM270 1268v14 q44 71 87 103t108 32q37 0 68.5 -14.5t48.5 -32.5t39.5 -32.5t44.5 -14.5q30 0 98 68l14 4l74 -56v-14q-39 -69 -86 -102t-113 -33q-36 0 -66.5 14.5t-48 31.5t-39.5 31.5t-44 14.5q-38 0 -97 -65l-14 -5z" />
<glyph unicode="&#xf2;" d="M121 330v352q0 167 109.5 260.5t283.5 93.5t283.5 -93.5t109.5 -260.5v-352q0 -167 -109.5 -261t-283.5 -94t-283.5 94t-109.5 261zM266 1427l10 9h222l14 -9l123 -208l-2 -13l-103 -41h-12zM285 365q0 -118 59 -180t170 -62q108 0 168.5 62.5t60.5 179.5v284 q0 117 -60 178.5t-169 61.5q-111 0 -170 -61t-59 -179v-284z" />
<glyph unicode="&#xf3;" d="M121 330v352q0 167 109.5 260.5t283.5 93.5t283.5 -93.5t109.5 -260.5v-352q0 -167 -109.5 -261t-283.5 -94t-283.5 94t-109.5 261zM285 365q0 -118 59 -180t170 -62q108 0 168.5 62.5t60.5 179.5v284q0 117 -60 178.5t-169 61.5q-111 0 -170 -61t-59 -179v-284z M403 1219l123 208l15 9h221l10 -9l-252 -262h-12l-102 41z" />
<glyph unicode="&#xf4;" d="M121 330v352q0 167 109.5 260.5t283.5 93.5t283.5 -93.5t109.5 -260.5v-352q0 -167 -109.5 -261t-283.5 -94t-283.5 94t-109.5 261zM250 1217l188 208l19 11h123l18 -11l188 -208l-4 -15l-112 -37h-15l-137 160l-137 -160h-14l-113 37zM285 365q0 -118 59 -180t170 -62 q108 0 168.5 62.5t60.5 179.5v284q0 117 -60 178.5t-169 61.5q-111 0 -170 -61t-59 -179v-284z" />
<glyph unicode="&#xf5;" d="M121 330v352q0 167 109.5 260.5t283.5 93.5t283.5 -93.5t109.5 -260.5v-352q0 -167 -109.5 -261t-283.5 -94t-283.5 94t-109.5 261zM229 1268v14q44 71 87 103t108 32q37 0 68.5 -14.5t48.5 -32.5t39.5 -32.5t44.5 -14.5q30 0 98 68l14 4l74 -56v-14q-39 -69 -86 -102 t-113 -33q-36 0 -66.5 14.5t-48 31.5t-39.5 31.5t-44 14.5q-38 0 -97 -65l-14 -5zM285 365q0 -118 59 -180t170 -62q108 0 168.5 62.5t60.5 179.5v284q0 117 -60 178.5t-169 61.5q-111 0 -170 -61t-59 -179v-284z" />
<glyph unicode="&#xf6;" d="M121 330v352q0 167 109.5 260.5t283.5 93.5t283.5 -93.5t109.5 -260.5v-352q0 -167 -109.5 -261t-283.5 -94t-283.5 94t-109.5 261zM285 365q0 -118 59 -180t170 -62q108 0 168.5 62.5t60.5 179.5v284q0 117 -60 178.5t-169 61.5q-111 0 -170 -61t-59 -179v-284z M295 1260v159l10 11h150l10 -11v-159l-10 -11h-150zM575 1260v159l11 11h149l10 -11v-159l-10 -11h-149z" />
<glyph unicode="&#xf7;" horiz-adv-x="1126" d="M193 434v141l10 11h733l8 -11l-37 -141l-12 -10h-692zM455 72v192l10 10h188l11 -10v-192l-11 -11h-188zM455 748v192l10 10h188l11 -10v-192l-11 -11h-188z" />
<glyph unicode="&#xf8;" horiz-adv-x="1038" d="M125 330v352q0 167 109.5 260.5t283.5 93.5q121 0 213 -47l55 96l15 5l92 -35l4 -11l-72 -124q86 -96 86 -238v-352q0 -167 -109.5 -261t-283.5 -94q-118 0 -213 45l-55 -96l-12 -4l-84 49l-4 11l63 110q-88 91 -88 240zM289 365q0 -60 16 -113l348 602q-56 35 -135 35 q-111 0 -170 -61t-59 -179v-284zM383 156q53 -33 135 -33q109 0 169.5 62.5t60.5 179.5v284q0 54 -17 107z" />
<glyph unicode="&#xf9;" horiz-adv-x="1060" d="M145 336v653l11 12l143 21l10 -8v-643q0 -127 60.5 -187.5t156.5 -60.5q24 0 76.5 14.5t92.5 28.5l40 14v809l10 12l144 21l10 -8v-813l51 -181l-10 -12l-125 -18l-12 8l-60 147q-10 -31 -29.5 -59t-52 -54t-84.5 -41.5t-118 -15.5q-141 0 -227.5 94.5t-86.5 266.5z M289 1427l10 9h221l15 -9l122 -208l-2 -13l-102 -41h-12z" />
<glyph unicode="&#xfa;" horiz-adv-x="1060" d="M145 336v653l11 12l143 21l10 -8v-643q0 -127 60.5 -187.5t156.5 -60.5q24 0 76.5 14.5t92.5 28.5l40 14v809l10 12l144 21l10 -8v-813l51 -181l-10 -12l-125 -18l-12 8l-60 147q-10 -31 -29.5 -59t-52 -54t-84.5 -41.5t-118 -15.5q-141 0 -227.5 94.5t-86.5 266.5z M426 1219l123 208l14 9h221l11 -9l-252 -262h-13l-102 41z" />
<glyph unicode="&#xfb;" horiz-adv-x="1060" d="M145 336v653l11 12l143 21l10 -8v-643q0 -127 60.5 -187.5t156.5 -60.5q24 0 76.5 14.5t92.5 28.5l40 14v809l10 12l144 21l10 -8v-813l51 -181l-10 -12l-125 -18l-12 8l-60 147q-10 -31 -29.5 -59t-52 -54t-84.5 -41.5t-118 -15.5q-141 0 -227.5 94.5t-86.5 266.5z M272 1217l189 208l18 11h123l19 -11l188 -208l-4 -15l-113 -37h-14l-137 160l-138 -160h-14l-113 37z" />
<glyph unicode="&#xfc;" horiz-adv-x="1060" d="M145 336v653l11 12l143 21l10 -8v-643q0 -127 60.5 -187.5t156.5 -60.5q24 0 76.5 14.5t92.5 28.5l40 14v809l10 12l144 21l10 -8v-813l51 -181l-10 -12l-125 -18l-12 8l-60 147q-10 -31 -29.5 -59t-52 -54t-84.5 -41.5t-118 -15.5q-141 0 -227.5 94.5t-86.5 266.5z M317 1260v159l11 11h149l10 -11v-159l-10 -11h-149zM598 1260v159l10 11h150l10 -11v-159l-10 -11h-150z" />
<glyph unicode="&#xfd;" horiz-adv-x="952" d="M-68 -377l62 111l14 4q7 -7 21 -17.5t55.5 -28.5t83.5 -18q122 0 190 187l64 172l-23 8l-16 14l-352 934l10 12l160 21l10 -8l240 -738l30 -108q47 163 142 459.5t116 363.5l13 10l163 21l7 -10l-428 -1219q-45 -129 -127 -197.5t-195 -68.5q-127 0 -235 80zM346 1219 l123 208l14 9h222l10 -9l-252 -262h-12l-103 41z" />
<glyph unicode="&#xfe;" horiz-adv-x="1032" d="M156 -455v1911l10 12l143 21l10 -8v-510l-8 -84q11 22 29 43.5t50.5 47.5t85 42t116.5 16q141 0 229 -94t88 -264v-348q0 -167 -104 -261t-268 -94q-135 0 -226 72l8 -94v-383l-10 -12l-143 -21zM319 340q0 -217 211 -217q97 0 156 63.5t59 178.5v278q0 126 -61.5 186 t-159.5 60q-60 0 -205 -47v-502z" />
<glyph unicode="&#xff;" horiz-adv-x="952" d="M-68 -377l62 111l14 4q7 -7 21 -17.5t55.5 -28.5t83.5 -18q122 0 190 187l64 172l-23 8l-16 14l-352 934l10 12l160 21l10 -8l240 -738l30 -108q47 163 142 459.5t116 363.5l13 10l163 21l7 -10l-428 -1219q-45 -129 -127 -197.5t-195 -68.5q-127 0 -235 80zM238 1260 v159l10 11h149l11 -11v-159l-11 -11h-149zM518 1260v159l10 11h150l10 -11v-159l-10 -11h-150z" />
<glyph unicode="&#x152;" horiz-adv-x="1910" d="M145 477v418q0 243 145.5 375.5t385.5 132.5q234 0 375 -141v110l10 10h711l10 -10v-143l-10 -10h-549v-410h477l8 -10l-37 -144l-12 -10h-436v-481h551l8 -10l-21 -144l-12 -10h-688l-10 10v103q-141 -138 -375 -138q-240 0 -385.5 130.5t-145.5 371.5zM322 496 q0 -176 100 -266.5t264 -90.5q365 0 365 381v357q0 95 -28 166.5t-78.5 113.5t-115 62t-143.5 20q-163 0 -263.5 -92.5t-100.5 -265.5v-385z" />
<glyph unicode="&#x153;" horiz-adv-x="1599" d="M121 330v352q0 167 109.5 260.5t283.5 93.5q207 0 311 -141q101 141 301 141q94 0 164.5 -26.5t110 -71.5t58 -96.5t18.5 -108.5q0 -151 -90.5 -226t-239.5 -75q-57 0 -102.5 11t-70.5 25t-44 33t-24 28t-9 18l10 -76v-106q0 -116 62 -179t168 -63q88 0 140 27t83 81 l14 5l123 -43l6 -13q-36 -97 -131 -151t-227 -54q-219 0 -324 138q-101 -138 -307 -138q-174 0 -283.5 94t-109.5 261zM285 365q0 -118 59 -180t170 -62q108 0 168.5 62.5t60.5 179.5v284q0 117 -60 178.5t-169 61.5q-111 0 -170 -61t-59 -179v-284zM907 614q41 -32 215 -32 q191 0 191 159q0 61 -47.5 103.5t-145.5 42.5q-213 0 -213 -236v-37z" />
<glyph unicode="&#x178;" horiz-adv-x="1052" d="M25 1358l10 14l172 23l12 -9l275 -544l32 -80q54 120 163 335t132 261l10 12l187 25l12 -9l-418 -780v-596l-10 -10h-151l-11 10v596zM301 1595v160l10 10h150l10 -10v-160l-10 -10h-150zM582 1595v160l10 10h149l11 -10v-160l-11 -10h-149z" />
<glyph unicode="&#x2c6;" d="M246 1217l188 208l19 11h122l19 -11l188 -208l-4 -15l-112 -37h-15l-137 160l-137 -160h-15l-112 37z" />
<glyph unicode="&#x2dc;" d="M227 1268v14q44 71 87 103t108 32q37 0 68.5 -14.5t48.5 -32.5t39.5 -32.5t44.5 -14.5q30 0 98 68l14 4l74 -56v-14q-39 -69 -86 -102t-113 -33q-36 0 -66.5 14.5t-48 31.5t-39.5 31.5t-44 14.5q-38 0 -97 -65l-14 -5z" />
<glyph unicode="&#x2000;" horiz-adv-x="898" />
<glyph unicode="&#x2001;" horiz-adv-x="1796" />
<glyph unicode="&#x2002;" horiz-adv-x="898" />
<glyph unicode="&#x2003;" horiz-adv-x="1796" />
<glyph unicode="&#x2004;" horiz-adv-x="598" />
<glyph unicode="&#x2005;" horiz-adv-x="449" />
<glyph unicode="&#x2006;" horiz-adv-x="299" />
<glyph unicode="&#x2007;" horiz-adv-x="299" />
<glyph unicode="&#x2008;" horiz-adv-x="224" />
<glyph unicode="&#x2009;" horiz-adv-x="359" />
<glyph unicode="&#x200a;" horiz-adv-x="99" />
<glyph unicode="&#x2010;" horiz-adv-x="870" d="M170 459v143l10 10h527l8 -10l-37 -143l-12 -10h-486z" />
<glyph unicode="&#x2011;" horiz-adv-x="870" d="M170 459v143l10 10h527l8 -10l-37 -143l-12 -10h-486z" />
<glyph unicode="&#x2012;" horiz-adv-x="870" d="M170 459v143l10 10h527l8 -10l-37 -143l-12 -10h-486z" />
<glyph unicode="&#x2013;" horiz-adv-x="1359" d="M170 465v129l10 10h1008l8 -10l-25 -129l-12 -10h-979z" />
<glyph unicode="&#x2014;" horiz-adv-x="1765" d="M170 465v129l10 10h1413l9 -10l-25 -129l-12 -10h-1385z" />
<glyph unicode="&#x2018;" horiz-adv-x="446" d="M82 1022l176 362l14 9l78 -21l8 -14l-59 -336l-14 -10h-197z" />
<glyph unicode="&#x2019;" horiz-adv-x="415" d="M94 1036l60 336l14 10h197l6 -10l-176 -362l-15 -9l-78 21z" />
<glyph unicode="&#x201a;" horiz-adv-x="485" d="M86 -154l59 336l15 11h196l6 -11l-176 -362l-14 -8l-78 20z" />
<glyph unicode="&#x201c;" horiz-adv-x="761" d="M82 1022l176 362l14 9l78 -21l8 -14l-59 -336l-14 -10h-197zM397 1022l176 362l15 9l78 -21l8 -14l-60 -346h-211z" />
<glyph unicode="&#x201d;" horiz-adv-x="731" d="M94 1036l60 336l14 10h197l6 -10l-176 -362l-15 -9l-78 21zM410 1036l59 336l14 10h197l6 -10l-176 -362l-14 -9l-78 21z" />
<glyph unicode="&#x201e;" horiz-adv-x="800" d="M88 -152l59 336l15 11h196l7 -11l-177 -362l-14 -8l-78 20zM403 -152l60 336l14 11h197l6 -11l-176 -362l-15 -8l-77 20z" />
<glyph unicode="&#x2022;" horiz-adv-x="999" d="M152 471v74q0 75 30.5 135.5t80.5 97.5t110.5 56.5t124.5 19.5q89 0 166.5 -33t130.5 -105t53 -171v-74q0 -76 -30.5 -136t-81 -96t-111.5 -54.5t-127 -18.5q-64 0 -124.5 18.5t-110.5 54.5t-80.5 96t-30.5 136z" />
<glyph unicode="&#x2026;" horiz-adv-x="1617" d="M137 10v193l10 10h189l10 -10v-193l-10 -10h-189zM705 10v193l10 10h188l10 -10v-193l-10 -10h-188zM1272 10v193l10 10h188l11 -10v-193l-11 -10h-188z" />
<glyph unicode="&#x202f;" horiz-adv-x="359" />
<glyph unicode="&#x2039;" horiz-adv-x="636" d="M90 500v14l258 389l19 12h153l12 -14l-266 -393l266 -393l-12 -15h-153l-19 13z" />
<glyph unicode="&#x203a;" horiz-adv-x="636" d="M104 115l267 393l-267 393l13 14h153l19 -12l258 -389v-14l-258 -387l-19 -13h-153z" />
<glyph unicode="&#x205f;" horiz-adv-x="449" />
<glyph unicode="&#x20ac;" horiz-adv-x="1214" d="M109 375v123l10 10h129v139h-129l-10 10v123l10 11h135q29 196 167.5 301.5t352.5 105.5q88 0 166.5 -21t113 -40t48.5 -33l2 -14l-45 -115l-17 -2q-4 3 -11 8.5t-32 19t-53 23.5t-72.5 18.5t-91.5 8.5q-140 0 -233.5 -68t-124.5 -192h582l8 -11l-33 -123l-12 -10h-557 v-139h524l8 -10l-31 -123l-12 -10h-473q35 -118 129 -180t227 -62q80 0 155.5 26t123.5 62l16 -2l41 -115l-2 -14q-15 -15 -50.5 -36t-115.5 -45t-168 -24q-213 0 -354 100.5t-174 289.5h-137z" />
<glyph unicode="&#x2122;" horiz-adv-x="1607" d="M45 1276v96l10 10h572l8 -10l-27 -96l-12 -10h-199v-535l-10 -10h-106l-11 10v535h-215zM711 731v641l10 10l98 13l15 -11l258 -462l254 450l10 10l100 13l14 -11v-653l-10 -10h-108l-9 10v399l-194 -342l-14 -10h-93l-12 10l-192 351v-408l-11 -10h-106z" />
</font>
</defs>
</svg>
